[DBPH] Dragon Ball Z GMA Tagalog Redub/Creative Productions Filipino Eng Dub EP.12 " Nang Matulog sa Snake Road! Nahulog si Goku!" (Catnap on the Serpent Road - Goku Takes a Tumble)

Category:
Date:
2022-01-22 06:46 UTC
Submitter:
Seeders:
1
Information:
No information.
Leechers:
0
File size:
1.6 GiB
Completed:
1
Info hash:
205f3b3ebec2bbc8b9016b694e066e7908ca9abf
General Unique ID : 131364345366571256374548722112697438493 (0x62D3DA4664EBE50900250961E6D3911D) Complete name : C:\Users\moren\Videos\Dragon Ball Z Tagalog Redub HD\[DBPH] Dragon Ball Z Episode 12 Tagalog Dubbed-RPN9 (Creative Productions Dub).mkv Format : Matroska Format version : Version 4 File size : 1.61 GiB Duration : 24 min 39 s Overall bit rate mode : Variable Overall bit rate : 9 374 kb/s Encoded date : UTC 2022-01-22 06:21:09 Writing application : mkvmerge v63.0.0 ('Everything') 32-bit Writing library : libebml v1.4.2 + libmatroska v1.6.4 Cover : Yes Attachments : cover.jpg / Funimitation.ttf / FunimitationBoldItalic.ttf Video ID : 1 Format : MPEG Video Format version : Version 2 Format profile : Main@Main Format settings : CustomMatrix / BVOP Format settings, BVOP : Yes Format settings, Matrix : Custom Format settings, GOP : Variable Codec ID : V_MPEG2 Codec ID/Info : MPEG 1 or 2 Video Duration : 24 min 39 s Bit rate mode : Variable Bit rate : 7 602 kb/s Maximum bit rate : 9 800 kb/s Width : 720 pixels Height : 480 pixels Display aspect ratio : 4:3 Frame rate mode : Variable Frame rate : 23.976 FPS Standard : Component Color space : YUV Chroma subsampling : 4:2:0 Bit depth : 8 bits Scan type : Progressive Scan order : 2:3 Pulldown Compression mode : Lossy Bits/(Pixel*Frame) : 0.917 Time code of first frame : 01:30:05:00 Time code source : Group of pictures header GOP, Open/Closed : Open GOP, Open/Closed of first frame : Closed Stream size : 1.31 GiB (81%) Default : No Forced : No Color primaries : BT.601 NTSC Transfer characteristics : BT.601 Matrix coefficients : BT.601 Audio #1 ID : 2 Format : AC-3 Format/Info : Audio Coding 3 Commercial name : Dolby Digital Codec ID : A_AC3 Duration : 24 min 39 s Bit rate mode : Constant Bit rate : 256 kb/s Channel(s) : 1 channel Channel layout : C Sampling rate : 48.0 kHz Frame rate : 31.250 FPS (1536 SPF) Compression mode : Lossy Stream size : 45.1 MiB (3%) Title : Original Broadcast Audio Language : Japanese Service kind : Complete Main Default : Yes Forced : No Audio #2 ID : 3 Format : FLAC Format/Info : Free Lossless Audio Codec Codec ID : A_FLAC Duration : 24 min 39 s Bit rate mode : Variable Bit rate : 715 kb/s Channel(s) : 2 channels Channel layout : L R Sampling rate : 44.1 kHz Frame rate : 38.281 FPS (1152 SPF) Bit depth : 16 bits Compression mode : Lossless Stream size : 126 MiB (8%) Title : Creative Productions English Dub Writing library : libFLAC 20080709 (UTC 2008-07-09) Default : Yes Forced : No Audio #3 ID : 4 Format : FLAC Format/Info : Free Lossless Audio Codec Codec ID : A_FLAC Duration : 24 min 39 s Bit rate mode : Variable Bit rate : 794 kb/s Channel(s) : 2 channels Channel layout : L R Sampling rate : 44.1 kHz Frame rate : 38.281 FPS (1152 SPF) Bit depth : 16 bits Compression mode : Lossless Stream size : 140 MiB (8%) Title : Tagalog Redub (2015) Writing library : libFLAC 20080709 (UTC 2008-07-09) Default : Yes Forced : No Menu 00:00:00.000 : en:Chapter 01 00:01:49.109 : en:Chapter 02 00:13:45.324 : en:Chapter 03 00:22:32.517 : en:Chapter 04 00:24:08.613 : en:Chapter 05

File list

  • [DBPH] Dragon Ball Z Episode 12 Tagalog Dubbed-RPN9 (Creative Productions Dub).mkv (1.6 GiB)