劇場版.少女☆歌劇.レヴュースタァライト.Shoujo.Kageki.Revue.Starlight.Movie.2021.JAPANESE.1080p.BluRay.REMUX.AVC.LPCM.5.1

Category:
Date:
2022-01-22 01:26 UTC
Submitter:
Anonymous
Seeders:
7
Information:
No information.
Leechers:
0
File size:
37.8 GiB
Completed:
66
Info hash:
0da26acb0cfa736f1925ba5d96f737dc1124850c
![Shoujo.Kageki.Revue.Starlight.Movie.2021.JAPANESE.1080p.BluRay.REMUX.AVC.LPCM.5.1](https://ipfs.io/ipfs/QmSLdcazyQbBkCgPLQDWgFzqLg77j6Uv5Dv8Cb3wyUTRf6?preview=1 "Shoujo.Kageki.Revue.Starlight.Movie.2021.JAPANESE.1080p.BluRay.REMUX.AVC.LPCM.5.1") ### MediaInfo ``` Video ID : 1 ID in the original source medium : 4113 (0x1011) Format : AVC Format/Info : Advanced Video Codec Format profile : High@L4.1 Format settings : CABAC / 4 Ref Frames Format settings, CABAC : Yes Format settings, Reference frames : 4 frames Codec ID : V_MPEG4/ISO/AVC Duration : 2 h 0 min Bit rate mode : Variable Bit rate : 38.0 Mb/s Maximum bit rate : 40.0 Mb/s Width : 1 920 pixels Height : 1 080 pixels Display aspect ratio : 16:9 Frame rate mode : Constant Frame rate : 23.976 (24000/1001) FPS Color space : YUV Chroma subsampling : 4:2:0 Bit depth : 8 bits Scan type : Progressive Bits/(Pixel*Frame) : 0.764 Stream size : 31.9 GiB (85%) Language : English Default : No Forced : No Original source medium : Blu-ray Audio ID : 2 ID in the original source medium : 4352 (0x1100) Format : PCM Format settings : Little / Signed Codec ID : A_MS/ACM / 00000001-0000-0010-8000-00AA00389B71 Duration : 2 h 0 min Bit rate mode : Constant Bit rate : 6 912 kb/s / 6 912 kb/s Channel(s) : 6 channels Channel layout : L R C LFE Ls Rs Sampling rate : 48.0 kHz Frame rate : 30.000 FPS (1600 SPF) Bit depth : 24 bits Stream size : 5.81 GiB (15%) Title : Surround 5.1 Language : Japanese Default : Yes Forced : No Original source medium : Blu-ray Menu 00:00:00.000 : ja:Chapter 01 00:04:13.253 : ja:Chapter 02 00:21:53.687 : ja:Chapter 03 00:36:07.790 : ja:Chapter 04 00:43:39.617 : ja:Chapter 05 00:55:47.093 : ja:Chapter 06 01:04:41.878 : ja:Chapter 07 01:14:56.492 : ja:Chapter 08 01:28:11.286 : ja:Chapter 09 01:43:26.200 : ja:Chapter 10 01:57:04.017 : ja:Chapter 11 ```

File list

  • Shoujo.Kageki.Revue.Starlight.Movie.2021.JAPANESE.1080p.BluRay.REMUX.AVC.LPCM.5.1.mkv (37.8 GiB)