Wagemon EP01 720p HDTV x264 AAC-JPTVclub [Japanese Subtitle]

Category:
Date:
2022-01-15 11:15 UTC
Submitter:
Anonymous
Seeders:
4
Information:
No information.
Leechers:
2
File size:
1.1 GiB
Completed:
171
Info hash:
9f41ed01ae6559badc0a400105b07a32d7b685e6
Wagemon: Nagasaki Tsuyaku Ibun (2022) わげもん~長崎通訳異聞~ Set in Nagasaki, an international city during the Edo period, the story depicts the verses who have supported the Dutch trade in the shadows. Main character is Sota Ijima. Media Info 📁 FILE: Wagemon EP01 720p HDTV x264 AAC-JPTVclub.mkv ℹ️ GENERAL: Matroska / 48 min 58 s 📽️ VIDEO: AVC / 1280 x 720 / 16:9 / 29.970 (30000/1001) FPS / 8 bits / 2940kb/s / High@L4.1 / Progressive / BT.709 🔊 AUDIO 1: Japanese / AAC LC / 2.0ch / 141kb/s ⚙️ ENCODE SETTINGS: cabac=1 / ref=9 / deblock=1:-2:-2 / analyse=0x3:0x133 / me=umh / subme=10 / psy=1 / psy_rd=1.00:0.15 / mixed_ref=1 / me_range=24 / chroma_me=1 / trellis=2 / 8x8dct=1 / cqm=0 / deadzone=21,11 / fast_pskip=1 / chroma_qp_offset=-3 / threads=6 / lookahead_threads=1 / sliced_threads=0 / nr=0 / decimate=1 / interlaced=0 / bluray_compat=0 / constrained_intra=0 / bframes=8 / b_pyramid=2 / b_adapt=2 / b_bias=0 / direct=3 / weightb=1 / open_gop=0 / weightp=2 / keyint=250 / keyint_min=25 / scenecut=40 / intra_refresh=0 / rc_lookahead=60 / rc=crf / mbtree=1 / crf=17.0 / qcomp=0.60 / qpmin=0 / qpmax=69 / qpstep=4 / ip_ratio=1.40 / aq=1:1.00 ``` General Unique ID : 82350416458860844220027067079295150975 (0x3DF41D012B4571FE1CB9F6CF3BEEAB7F) Complete name : Wagemon EP01 720p HDTV x264 AAC-JPTVclub.mkv Format : Matroska Format version : Version 4 File size : 1.05 GiB Duration : 48 min 58 s Overall bit rate : 3 083 kb/s Movie name : わげもん~長崎通訳異聞~(1)「父を探して」 / わげもん~長崎通訳異聞~ Track name/Position : 1 Encoded by : JPTV.club Released date : 2022-01-08 Encoded date : UTC 2022-01-14 21:00:16 Writing application : mkvmerge v35.0.0 ('All The Love In The World') 64-bit Writing library : libebml v1.3.9 + libmatroska v1.5.2 / Lavf57.71.100 Comment : …the world kept turning and the turtle moved. PUBLISHER : NHK THANKS_TO : JPTV.club Firebrigade TMDB : tv/155158 Video ID : 1 Format : AVC Format/Info : Advanced Video Codec Format profile : High@L4.1 Format settings : CABAC / 9 Ref Frames Format settings, CABAC : Yes Format settings, Reference frames : 9 frames Codec ID : V_MPEG4/ISO/AVC Duration : 48 min 58 s Bit rate : 2 940 kb/s Width : 1 280 pixels Height : 720 pixels Display aspect ratio : 16:9 Frame rate mode : Constant Frame rate : 29.970 (30000/1001) FPS Color space : YUV Chroma subsampling : 4:2:0 Bit depth : 8 bits Scan type : Progressive Bits/(Pixel*Frame) : 0.106 Stream size : 1.01 GiB (95%) Writing library : x264 core 159 Encoding settings : cabac=1 / ref=9 / deblock=1:-2:-2 / analyse=0x3:0x133 / me=umh / subme=10 / psy=1 / psy_rd=1.00:0.15 / mixed_ref=1 / me_range=24 / chroma_me=1 / trellis=2 / 8x8dct=1 / cqm=0 / deadzone=21,11 / fast_pskip=1 / chroma_qp_offset=-3 / threads=6 / lookahead_threads=1 / sliced_threads=0 / nr=0 / decimate=1 / interlaced=0 / bluray_compat=0 / constrained_intra=0 / bframes=8 / b_pyramid=2 / b_adapt=2 / b_bias=0 / direct=3 / weightb=1 / open_gop=0 / weightp=2 / keyint=250 / keyint_min=25 / scenecut=40 / intra_refresh=0 / rc_lookahead=60 / rc=crf / mbtree=1 / crf=17.0 / qcomp=0.60 / qpmin=0 / qpmax=69 / qpstep=4 / ip_ratio=1.40 / aq=1:1.00 Language : Japanese Default : Yes Forced : No Color range : Limited Color primaries : BT.709 Transfer characteristics : BT.709 Matrix coefficients : BT.709 Audio ID : 2 Format : AAC LC Format/Info : Advanced Audio Codec Low Complexity Codec ID : A_AAC-2 Duration : 48 min 58 s Bit rate : 141 kb/s Channel(s) : 2 channels Channel layout : L R Sampling rate : 48.0 kHz Frame rate : 46.875 FPS (1024 SPF) Compression mode : Lossy Delay relative to video : 9 ms Stream size : 49.3 MiB (5%) Language : Japanese Default : Yes Forced : No Menu 00:00:00.000 : ja:父を探して 00:48:38.816 : ja:次回予告 ``` ``` h264 720p encode/ unrelated content cut/ untouched audio/ chapters/ subtitles. ``` ![alt text](https://zippyimage.com/images/2022/01/14/39b1895af53d7749c8e69c6f460aa79c.jpg "Thumbnail overview")

File list

  • Wagemon
    • Wagemon EP01 720p HDTV x264 AAC-JPTVclub.mkv (1.1 GiB)
    • [Japanese Subtitle]Wagemon EP01 720p HDTV x264 AAC-JPTVclub.ass (77.7 KiB)
    • [Japanese Subtitle]Wagemon EP01 720p HDTV x264 AAC-JPTVclub.srt (38.0 KiB)