[neoHEVC] Revue Starlight [Season 1 + Specials + Movie] [BD 1080p x265 HEVC AAC] [Dual Audio] Shoujo ☆ Kageki Revue Starlight

Category:
Date:
2022-01-10 19:24 UTC
Submitter:
Seeders:
26
Information:
Leechers:
5
File size:
4.2 GiB
Completed:
1851
Info hash:
c8c41d64f9660c348a8263d421a428968c5dfa5a
![](https://i.imgur.com/RBlGp48.png) *Join **[Discord](https://discord.gg/47Q7FdB54e)** for Current Projects and Seed-Request in case of no available seeds.* **Revue Starlight / Shoujo ☆ Kageki Revue Starlight [Season 1 + Specials + Movie]** *Notes:* *- left in black borders in movie as I was too lazy to adjust the subs. Not like I'm trying to save on data or anything, baka!* *- there were a couple variants of the movie subs available. I went with the ones I liked most -> lyrics with english and romaji and no-color dialog. Anyone interested in the other options can grab them **[here](https://drive.google.com/drive/folders/1wW6wDEBXyMUUuiVn_6Bm6HEfbozBeDkI)** and mux* ![](https://i.imgur.com/ZCtSawZ.png) **[MyAnimeList: Season 1](https://myanimelist.net/anime/35503/Shoujo%E2%98%86Kageki_Revue_Starlight)** ![](https://i.imgur.com/3UxGuWB.png) ![](https://i.imgur.com/4iegWLL.png) **[Trailer](https://www.youtube.com/watch?v=9UiE_ye94CA)** ![](https://i.imgur.com/ZCtSawZ.png) **[MyAnimeList: Specials](https://myanimelist.net/anime/38050/Shoujo%E2%98%86Kageki_Revue_Starlight_Specials)** ![](https://i.imgur.com/ZCtSawZ.png) **[MyAnimeList: Movie](https://myanimelist.net/anime/40664/Shoujo%E2%98%86Kageki_Revue_Starlight_Movie)** --- **Patches** **[[Dual Audio] Patch for Movie](https://drive.google.com/file/d/121wa9gtKqSzmIdklQ5JRAK4EnPs3-Dd1/view?usp=share_link)** --- **Synopsis** As preparations begin for Seisho Music Academy's yearly Seisho Festival, the girls of the 99th class are gearing up to perform their very own rendition of "Starlight," the tragic tale of two goddesses drawn together by the glow of the heavens but destined to be pulled apart, never to meet again. Created to foster the next generation of theatrical talent, this girls’ only school works to improve the singing, acting, and dancing skills of its students. One student is 16-year-old Karen Aijou, an easygoing girl who has dreamed of performing on stage since she was a child. Her love for theater is further invigorated when her childhood friend Hikari Kagura transfers to Seisho Academy. Through her old friend, Karen stumbles upon a secret elevator leading to a massive theater underneath the school. Hosted by a talking giraffe, this arena serves as a battleground where her classmates participate in duels to determine who among them deserves the title of "Top Star," earning them the right to play one of the lead roles in "Starlight." Emboldened by the promise she made with Hikari to someday be stars together, Karen enters these mysterious battles in the hopes of making their dream a reality. ![](https://i.imgur.com/EG2DvDI.png) --- **Language Options** I included two simple scripts that you can apply to these files to do the following (Windows only): 1. Make [Single Audio] Japanese: Throws out *English audio* and *Signs&Songs subtitles* tracks 2. Make [Single Audio] English: Throws out *Japanese audio* and *Dialogue subtitles* tracks To apply these put all the video files into the *Language Options* folder and run the .bat file. *Don't combine them and only use them once together with the base files.* --- **Comparison** *Open links, toggle with mouseclick and check title.* [![](https://i.imgur.com/qrXw5pd.png)](https://slow.pics/c/Pc2Tr0xp) [![](https://i.imgur.com/oxKR1fJ.png)](https://slow.pics/c/Hqu12btZ) [![](https://i.imgur.com/CuqNcM2.png)](https://slow.pics/c/cQYpNMDI) --- **Source** *Season 1 + Specials* 🗃️ Video (BDREMUX): **[[npz]](https://nyaa.si/view/1262840)** 🗃️ JPN Audio (BDREMUX): **[[npz]](https://nyaa.si/view/1262840)** 🗃️ ENG Audio (BDREMUX): **[[npz]](https://nyaa.si/view/1262840)** 🗃️ Subtitles: **[[NS-HAV1E]](https://nyaa.si/view/1247311)** 💬 *Subtitles Info: [Ripple / Chyuu-PAS / NS-HAV1E] - Format `ASS`* *Movie* 🗃️ Video (BDMV): **[AB]** 🗃️ JPN Audio (BDMV): **[AB]** 🗃️ ENG Audio (BDREMUX): **[[Anonymous]](https://nyaa.si/view/1610516)** 🗃️ Subtitles: **[[Veggie Sub]](https://nyaa.si/view/1472354)** 💬 *Subtitles Info: [Veggie Sub] - Format `ASS`* *Thank you all for making this possible <3* --- **Media Info** 🆔 [Full Mediainfo incl. Encoder Settings](https://pastebin.com/nrmkSiPB) ``` General Unique ID : 118373611704917936912109273403767707700 (0x590DEDA7BDBC4405B43FF6C7B138D834) Complete name : Revue Starlight - S01E01.mkv Format : Matroska Format version : Version 4 File size : 312 MiB Duration : 25 min 7 s Overall bit rate : 1 738 kb/s Movie name : Revue Starlight - S01E01 Encoded date : UTC 2022-01-09 11:11:39 Writing application : mkvmerge v57.0.0 ('Till The End') 64-bit Writing library : libebml v1.4.2 + libmatroska v1.6.4 / Lavf58.42.101 Attachments : <Check Link Above> Video ID : 1 Format : HEVC Format/Info : High Efficiency Video Coding Format profile : Main 10@L4.1@High Codec ID : V_MPEGH/ISO/HEVC Duration : 25 min 7 s Bit rate : 1 344 kb/s Width : 1 920 pixels Height : 1 080 pixels Display aspect ratio : 16:9 Frame rate mode : Constant Frame rate : 23.976 (24000/1001) FPS Color space : YUV Chroma subsampling : 4:2:0 Bit depth : 10 bits Bits/(Pixel*Frame) : 0.027 Stream size : 242 MiB (77%) Writing library : x265 3.5+10+13-7c9bc0cb14:[Windows][GCC 10.2.0][64 bit] 10bit Encoding settings : <Check Link Above> Default : Yes Forced : No Audio #1 ID : 2 Format : AAC LC Format/Info : Advanced Audio Codec Low Complexity Codec ID : A_AAC-2 Duration : 24 min 8 s Bit rate : 192 kb/s Channel(s) : 2 channels Channel layout : L R Sampling rate : 48.0 kHz Frame rate : 46.875 FPS (1024 SPF) Compression mode : Lossy Stream size : 32.9 MiB (11%) Title : English Language : English Default : Yes Forced : No Audio #2 ID : 3 Format : AAC LC Format/Info : Advanced Audio Codec Low Complexity Codec ID : A_AAC-2 Duration : 24 min 8 s Bit rate : 192 kb/s Channel(s) : 2 channels Channel layout : L R Sampling rate : 48.0 kHz Frame rate : 46.875 FPS (1024 SPF) Compression mode : Lossy Stream size : 33.3 MiB (11%) Title : Japanese Language : Japanese Default : No Forced : No Text #1 ID : 4 Format : ASS Codec ID : S_TEXT/ASS Codec ID/Info : Advanced Sub Station Alpha Duration : 23 min 18 s Bit rate : 4 704 b/s Count of elements : 4208 Compression mode : Lossless Stream size : 803 KiB (0%) Title : Signs & Songs Language : English Default : No Forced : Yes Text #2 ID : 5 Format : ASS Codec ID : S_TEXT/ASS Codec ID/Info : Advanced Sub Station Alpha Duration : 24 min 0 s Bit rate : 4 702 b/s Count of elements : 4533 Compression mode : Lossless Stream size : 827 KiB (0%) Title : Dialogue Language : English Default : Yes Forced : No Menu 00:00:00.000 : :Intro 00:00:51.885 : :Part A 00:11:43.912 : :Part B 00:22:30.891 : :Opening 00:24:00.856 : :Preview ```

File list

  • [neoHEVC] Revue Starlight [Season 1 + Specials + Movie] [BD 1080p x265 HEVC AAC] [Dual Audio]
    • Language Options
      • 1. Make [Single Audio] English.bat (254 Bytes)
      • 1. Make [Single Audio] Japanese.bat (254 Bytes)
      • mkvmerge.exe (9.6 MiB)
      • readme.txt (512 Bytes)
    • Season 1
      • Revue Starlight - S01E01.mkv (312.4 MiB)
      • Revue Starlight - S01E02.mkv (277.4 MiB)
      • Revue Starlight - S01E03.mkv (277.5 MiB)
      • Revue Starlight - S01E04.mkv (247.7 MiB)
      • Revue Starlight - S01E05.mkv (259.3 MiB)
      • Revue Starlight - S01E06.mkv (268.1 MiB)
      • Revue Starlight - S01E07.mkv (182.2 MiB)
      • Revue Starlight - S01E08.mkv (287.4 MiB)
      • Revue Starlight - S01E09.mkv (231.0 MiB)
      • Revue Starlight - S01E10.mkv (271.0 MiB)
      • Revue Starlight - S01E11.mkv (225.1 MiB)
      • Revue Starlight - S01E12.mkv (231.8 MiB)
    • Specials
      • Revue Starlight - S00E01 - (S1S1 - Measuring).mkv (68.0 MiB)
      • Revue Starlight - S00E02 - (S1S2 - Discussion).mkv (52.3 MiB)
      • Revue Starlight - S00E03 - (S1S3 - Opening).mkv (63.6 MiB)
      • Revue Starlight - S00E05 - (S1M1 - Movie).mkv (1.0 GiB)
Came for description

neoborn (uploader)

User
**@StazCherryBlood** To save you the troubles: The next one will probably be Kaguya (depends on GJM). Unless you see that in the list it's going to be a boring old small cover picture I whipped up during home office (I finally managed to get paid for this, can you imagine) <3. ![](https://i.imgur.com/NM6EQGf.png)
Thanks for doing my request! Looking forward to your next releases. If there's a chance for a BD batch for To Your Eternity, please go ahead.
I would like to request Sonny boy since the BD is out, Thank you!
Which movie is it? There are 2. I assume the "specials" are the 7 minute OVAs? What about the Shoujo Conte All Starlight shorts? Will have to fix the stupid ep numbering system. This entire "season 0" thing is just misleading and incredibly wrong.

neoborn (uploader)

User
**@himeno** Check the myanimelist links in the description maybe? A little bit of work you gotta do yourself. Get yourself a mediaserver and you will understand the naming scheme. If not, just rename them to your liking. It's not like it takes more than a couple seconds or anything, baka! ![](https://c.tenor.com/p4vHR4zM_u0AAAAM/anime-tsundere.gif)
Looks pretty nice! Thank you so much for uploading this wonderful anime! This anime is pretty rare to find especially in English Dubbed!

neoborn (uploader)

User
**Attention:** [Dual Audio] patch for movie in description.