Dragon.Ball.Z.Movies.1080p.TOEI.HD.10-Bit.Dual-Audio.TrueHD.AC3.x265-iAHD

Category:
Date:
2022-01-01 05:36 UTC
Submitter:
Seeders:
1
Information:
No information.
Leechers:
1
File size:
40.5 GiB
Completed:
320
Info hash:
a5846cdec39f6627ed4451bb5fcfda3b420407e8
NOTE: This is a collection of my previous releases. Video ID : 1 Format : HEVC Format/Info : High Efficiency Video Coding Format profile : Main 10@L5@Main Codec ID : V_MPEGH/ISO/HEVC Duration : 41 min 14 s Bit rate : 5 854 kb/s Width : 1 920 pixels Height : 1 080 pixels Display aspect ratio : 16:9 Frame rate mode : Constant Frame rate : 23.976 (24000/1001) FPS Color space : YUV Chroma subsampling : 4:2:0 Bit depth : 10 bits Bits/(Pixel*Frame) : 0.118 Stream size : 1.69 GiB (72%) Writing library : x265 2.9:[Windows][GCC 7.1.0][64 bit] 10bit Encoding settings : cpuid=1111039 / frame-threads=4 / numa-pools=16 / wpp / no-pmode / no-pme / no-psnr / no-ssim / log-level=2 / input-csp=1 / input-res=1920x1080 / interlace=0 / total-frames=0 / level-idc=0 / high-tier=1 / uhd-bd=0 / ref=6 / no-allow-non-conformance / no-repeat-headers / annexb / no-aud / no-hrd / info / hash=0 / no-temporal-layers / open-gop / min-keyint=24 / keyint=240 / gop-lookahead=0 / bframes=16 / b-adapt=2 / b-pyramid / bframe-bias=0 / rc-lookahead=50 / lookahead-slices=4 / scenecut=40 / radl=0 / no-intra-refresh / ctu=32 / min-cu-size=8 / rect / no-amp / max-tu-size=32 / tu-inter-depth=1 / tu-intra-depth=3 / limit-tu=0 / rdoq-level=2 / dynamic-rd=0.00 / no-ssim-rd / signhide / tskip / nr-intra=0 / nr-inter=0 / no-constrained-intra / strong-intra-smoothing / max-merge=3 / limit-refs=3 / limit-modes / me=3 / subme=3 / merange=57 / temporal-mvp / weightp / no-weightb / no-analyze-src-pics / deblock=0:0 / sao / no-sao-non-deblock / rd=4 / no-early-skip / rskip / no-fast-intra / tskip-fast / no-cu-lossless / no-b-intra / no-splitrd-skip / rdpenalty=0 / psy-rd=2.00 / psy-rdoq=1.00 / no-rd-refine / no-lossless / cbqpoffs=0 / crqpoffs=0 / rc=crf / crf=16.0 / qcomp=0.60 / qpstep=4 / stats-write=0 / stats-read=0 / ipratio=1.40 / pbratio=1.30 / aq-mode=3 / aq-strength=0.80 / cutree / zone-count=0 / no-strict-cbr / qg-size=32 / no-rc-grain / qpmax=69 / qpmin=0 / no-const-vbv / sar=1 / overscan=0 / videoformat=5 / range=0 / colorprim=1 / transfer=1 / colormatrix=1 / chromaloc=0 / display-window=0 / max-cll=0,0 / min-luma=0 / max-luma=1023 / log2-max-poc-lsb=8 / vui-timing-info / vui-hrd-info / slices=1 / no-opt-qp-pps / no-opt-ref-list-length-pps / no-multi-pass-opt-rps / scenecut-bias=0.05 / no-opt-cu-delta-qp / no-aq-motion / no-hdr / no-hdr-opt / no-dhdr10-opt / no-idr-recovery-sei / analysis-reuse-level=5 / scale-factor=0 / refine-intra=0 / refine-inter=0 / refine-mv=0 / no-limit-sao / ctu-info=0 / no-lowpass-dct / refine-mv-type=0 / copy-pic=1 / max-ausize-factor=1.0 / no-dynamic-refine / no-single-sei Language : Japanese Default : Yes Forced : No Color range : Limited Color primaries : BT.709 Transfer characteristics : BT.709 Matrix coefficients : BT.709 Audio #1 ID : 2 Format : MLP FBA Format/Info : Meridian Lossless Packing FBA Commercial name : Dolby TrueHD Codec ID : A_TRUEHD Duration : 41 min 13 s Bit rate mode : Variable Bit rate : 1 548 kb/s Maximum bit rate : 2 376 kb/s Channel(s) : 6 channels Channel layout : L R C LFE Ls Rs Sampling rate : 48.0 kHz Frame rate : 1 200.000 FPS (40 SPF) Compression mode : Lossless Stream size : 456 MiB (19%) Language : English Default : Yes Forced : No Audio #2 ID : 3 Format : AC-3 Format/Info : Audio Coding 3 Commercial name : Dolby Digital Codec ID : A_AC3 Duration : 41 min 13 s Bit rate mode : Constant Bit rate : 640 kb/s Channel(s) : 1 channel Channel layout : C Sampling rate : 48.0 kHz Frame rate : 31.250 FPS (1536 SPF) Compression mode : Lossy Stream size : 189 MiB (8%) Language : Japanese Service kind : Complete Main Default : No Forced : No Text #1 ID : 4 Format : PGS Codec ID : S_HDMV/PGS Codec ID/Info : Picture based subtitle format used on BDs/HD-DVDs Duration : 1 min 27 s Bit rate : 26.7 kb/s Count of elements : 36 Stream size : 286 KiB (0%) Title : Signs / Songs Language : English Default : Yes Forced : No Text #2 ID : 5 Format : PGS Codec ID : S_HDMV/PGS Codec ID/Info : Picture based subtitle format used on BDs/HD-DVDs Duration : 40 min 37 s Bit rate : 16.5 kb/s Count of elements : 664 Stream size : 4.80 MiB (0%) Title : Dialogue Language : English Default : No Forced : No Menu 00:00:00.000 : en:Chapter 01 00:01:43.437 : en:Chapter 02 00:03:31.545 : en:Chapter 03 00:07:09.763 : en:Chapter 04 00:12:35.421 : en:Chapter 05 00:18:09.088 : en:Chapter 06 00:22:05.324 : en:Chapter 07 00:26:29.588 : en:Chapter 08 00:30:03.802 : en:Chapter 09 00:33:44.022 : en:Chapter 10 00:37:25.577 : en:Chapter 11 00:39:37.041 : en:Chapter 12

File list

  • Dragon.Ball.Z.Movies.1080p.TOEI.HD.10-Bit.Dual-Audio.TrueHD.AC3.x265-iAHD
    • Dragon.Ball.Z.Bio.Broly.1994.1080p.TOEI.HD.10-Bit.Dual-Audio.TrueHD.AC3.x265-iAHD.mkv (2.6 GiB)
    • Dragon.Ball.Z.Bojack.Unbound.1993.1080p.TOEI.HD.10-Bit.Dual-Audio.TrueHD.AC3.x265-iAHD.mkv (2.9 GiB)
    • Dragon.Ball.Z.Broly.Second.Coming.1994.1080p.TOEI.HD.10-Bit.Dual-Audio.TrueHD.AC3.x265-iAHD.mkv (3.7 GiB)
    • Dragon.Ball.Z.Broly.the.Lengendary.Super.Saiyan.1993.1080p.TOEI.HD.10-Bit.Dual-Audio.TrueHD.AC3.x265-iAHD.mkv (4.2 GiB)
    • Dragon.Ball.Z.Cooler's.Revenge.1991.1080p.TOEI.HD.10-Bit.Dual-Audio.TrueHD.AC3.x265-iAHD.mkv (2.7 GiB)
    • Dragon.Ball.Z.Dead.Zone.1989.1080p.TOEI.HD.10-Bit.Dual-Audio.TrueHD.AC3.x265-iAHD.mkv (2.3 GiB)
    • Dragon.Ball.Z.Fusion.Reborn.1995.1080p.TOEI.HD.10-Bit.Dual-Audio.TrueHD.AC3.x265-iAHD.mkv (3.4 GiB)
    • Dragon.Ball.Z.Lord.Slug.1991.1080p.TOEI.HD.10-Bit.Dual-Audio.TrueHD.AC3.x265-iAHD.mkv (3.1 GiB)
    • Dragon.Ball.Z.Super.Android.13!.1992.1080p.TOEI.HD.10-Bit.Dual-Audio.TrueHD.AC3.x265-iAHD.mkv (3.1 GiB)
    • Dragon.Ball.Z.The.Return.of.Cooler.1992.1080p.TOEI.HD.10-Bit.Dual-Audio.TrueHD.AC3.x265-iAHD.mkv (3.0 GiB)
    • Dragon.Ball.Z.The.Tree.of.Might.1990.1080p.TOEI.HD.10-Bit.Dual-Audio.TrueHD.AC3.x265-iAHD.mkv (3.0 GiB)
    • Dragon.Ball.Z.The.World's.Strongest.1990.1080p.TOEI.HD.10-Bit.Dual-Audio.TrueHD.AC3.x265-iAHD.mkv (3.2 GiB)
    • Dragon.Ball.Z.Wrath.of.the.Dragon.1995.1080p.TOEI.HD.10-Bit.Dual-Audio.TrueHD.AC3.x265-iAHD.mkv (3.2 GiB)
Sankyuuuuuu iAHD!!!! Happy New Year!
Which dub version is used here?
Your batch torrent is missing two of the movies you already encoded and uploaded here, one of which has no seeds (Battle of Gods). https://nyaa.si/view/1008852 (Battle of Gods) https://nyaa.si/view/1008854 (Resurrection F) Could you please reseed Battle of Gods so I can complete the collection?
Thanks for doing this, love your releases! I'd also like a reseed of the last two movies, which are not included in this batch.
If it’s not rude to ask can you make a one piece movie batch just like this one I do wanna add one piece movies to my collection if that’s possible I already downloaded the movies you have but I was thinking about the older movies like one piece gold for example. Nonetheless thank you for another wonderful release as always looking forward for more
Out of curiosity, is this a rip of the Blu-ray or the Amazon version?
@juggernaut36 I'm not sure what movies you need exactly but hope these links help. @gensuke My Google drive links include both those movies 😁 1st Drive Movies: https://drive.google.com/folderview?id=1laFXSXru1RtMj029iRxxn-Kr4YFJ3DUc Series: https://drive.google.com/folderview?id=19BzwPWw9YOQ9CVVmQe6ixGgY7FCnr5Gl 2nd Drive Movies: https://drive.google.com/folderview?id=1XWBpDxchmyuWFzOe6FclX-Q0kzk2qQm8 Series: https://drive.google.com/folderview?id=1KI0bZ1MaJuboFk3wm2vz8RS3WqOPNUFa Feel free to raid them for anything you need. I don't get x264 releases so Blue Exorcist Season 1 and the movie are absent and a few others. I'll be transferring all movies to 1 drive and tidying things up a bit over the next few days. I've already filled 5TB worth of iAHD releases on my first drive so had to get a second lol. Just missing a few releases including Cross Ange, can't get seeders at all :(
@PS4Trophies OMG, thank you so much dude.
No sweat I'm here for all iAHD fans ;)
@PS4Trophies Thanks a lot for the DDL links. Huge help! Needed lossless audio for a bunch of stuff.
No problem. Lossless is amazing for the ears 😁
Can we please get https://nyaa.si/view/919973 (The book of bantorra v2 reseeded please?)
Thank you very much sir
So, these are better than Dragon Box? Resolution is higher but what about the colors?
Yes these are the best widescreen release.
This is neat, but it should have ideally had the English track have the music with those Nu-Metal bands playing.