Dragon.Ball.Movies.1080p.TOEI.HD.10-Bit.Dual-Audio.AC3.x265-iAHD

Category:
Date:
2022-01-01 05:27 UTC
Submitter:
Seeders:
4
Information:
No information.
Leechers:
0
File size:
10.8 GiB
Completed:
312
Info hash:
f21e6c643eb080d05fca4321c3b18944805227c8
NOTE: This is a collection of my previous releases. Video ID : 1 Format : HEVC Format/Info : High Efficiency Video Coding Format profile : Main 10@L5@Main Codec ID : V_MPEGH/ISO/HEVC Duration : 50 min 17 s Bit rate : 5 232 kb/s Width : 1 920 pixels Height : 1 080 pixels Display aspect ratio : 16:9 Frame rate mode : Constant Frame rate : 23.976 (24000/1001) FPS Color space : YUV Chroma subsampling : 4:2:0 Bit depth : 10 bits Bits/(Pixel*Frame) : 0.105 Stream size : 1.84 GiB (87%) Writing library : x265 2.9:[Windows][GCC 7.1.0][64 bit] 10bit Encoding settings : cpuid=1111039 / frame-threads=4 / numa-pools=16 / wpp / no-pmode / no-pme / no-psnr / no-ssim / log-level=2 / input-csp=1 / input-res=1920x1080 / interlace=0 / total-frames=0 / level-idc=0 / high-tier=1 / uhd-bd=0 / ref=6 / no-allow-non-conformance / no-repeat-headers / annexb / no-aud / no-hrd / info / hash=0 / no-temporal-layers / open-gop / min-keyint=24 / keyint=240 / gop-lookahead=0 / bframes=16 / b-adapt=2 / b-pyramid / bframe-bias=0 / rc-lookahead=50 / lookahead-slices=4 / scenecut=40 / radl=0 / no-intra-refresh / ctu=32 / min-cu-size=8 / rect / no-amp / max-tu-size=32 / tu-inter-depth=1 / tu-intra-depth=3 / limit-tu=0 / rdoq-level=2 / dynamic-rd=0.00 / no-ssim-rd / signhide / tskip / nr-intra=0 / nr-inter=0 / no-constrained-intra / strong-intra-smoothing / max-merge=3 / limit-refs=3 / limit-modes / me=3 / subme=3 / merange=57 / temporal-mvp / weightp / no-weightb / no-analyze-src-pics / deblock=0:0 / sao / no-sao-non-deblock / rd=4 / no-early-skip / rskip / no-fast-intra / tskip-fast / no-cu-lossless / no-b-intra / no-splitrd-skip / rdpenalty=0 / psy-rd=2.00 / psy-rdoq=1.00 / no-rd-refine / no-lossless / cbqpoffs=0 / crqpoffs=0 / rc=crf / crf=16.0 / qcomp=0.60 / qpstep=4 / stats-write=0 / stats-read=0 / ipratio=1.40 / pbratio=1.30 / aq-mode=3 / aq-strength=0.80 / cutree / zone-count=0 / no-strict-cbr / qg-size=32 / no-rc-grain / qpmax=69 / qpmin=0 / no-const-vbv / sar=1 / overscan=0 / videoformat=5 / range=0 / colorprim=1 / transfer=1 / colormatrix=1 / chromaloc=0 / display-window=0 / max-cll=0,0 / min-luma=0 / max-luma=1023 / log2-max-poc-lsb=8 / vui-timing-info / vui-hrd-info / slices=1 / no-opt-qp-pps / no-opt-ref-list-length-pps / no-multi-pass-opt-rps / scenecut-bias=0.05 / no-opt-cu-delta-qp / no-aq-motion / no-hdr / no-hdr-opt / no-dhdr10-opt / no-idr-recovery-sei / analysis-reuse-level=5 / scale-factor=0 / refine-intra=0 / refine-inter=0 / refine-mv=0 / no-limit-sao / ctu-info=0 / no-lowpass-dct / refine-mv-type=0 / copy-pic=1 / max-ausize-factor=1.0 / no-dynamic-refine / no-single-sei Language : Japanese Default : Yes Forced : No Color range : Limited Color primaries : BT.709 Transfer characteristics : BT.709 Matrix coefficients : BT.709 Audio #1 ID : 2 Format : AC-3 Format/Info : Audio Coding 3 Commercial name : Dolby Digital Codec ID : A_AC3 Duration : 50 min 15 s Bit rate mode : Constant Bit rate : 384 kb/s Channel(s) : 6 channels Channel layout : L R C LFE Ls Rs Sampling rate : 48.0 kHz Frame rate : 31.250 FPS (1536 SPF) Compression mode : Lossy Stream size : 138 MiB (6%) Language : English Service kind : Complete Main Default : Yes Forced : No Audio #2 ID : 3 Format : AC-3 Format/Info : Audio Coding 3 Commercial name : Dolby Digital Codec ID : A_AC3 Duration : 50 min 15 s Bit rate mode : Constant Bit rate : 384 kb/s Channel(s) : 2 channels Channel layout : L R Sampling rate : 48.0 kHz Frame rate : 31.250 FPS (1536 SPF) Compression mode : Lossy Stream size : 138 MiB (6%) Language : Japanese Service kind : Complete Main Default : No Forced : No Text #1 ID : 4 Format : PGS Muxing mode : zlib Codec ID : S_HDMV/PGS Codec ID/Info : Picture based subtitle format used on BDs/HD-DVDs Duration : 48 min 22 s Bit rate : 1 051 b/s Count of elements : 6 Stream size : 373 KiB (0%) Title : Signs Language : English Default : Yes Forced : No Text #2 ID : 5 Format : PGS Muxing mode : zlib Codec ID : S_HDMV/PGS Codec ID/Info : Picture based subtitle format used on BDs/HD-DVDs Duration : 49 min 35 s Bit rate : 21.3 kb/s Count of elements : 1008 Stream size : 7.56 MiB (0%) Title : Dialogue Language : English Default : No Forced : No Menu 00:00:00.000 : en:Chapter 01 00:01:48.108 : en:Chapter 02 00:03:36.216 : en:Chapter 03 00:07:27.113 : en:Chapter 04 00:11:06.666 : en:Chapter 05 00:15:52.952 : en:Chapter 06 00:18:57.136 : en:Chapter 07 00:21:13.939 : en:Chapter 08 00:23:58.771 : en:Chapter 09 00:26:43.602 : en:Chapter 10 00:28:06.351 : en:Chapter 11 00:30:44.509 : en:Chapter 12 00:33:06.651 : en:Chapter 13 00:37:54.272 : en:Chapter 14 00:40:23.755 : en:Chapter 15 00:42:43.227 : en:Chapter 16 00:45:24.722 : en:Chapter 17 00:48:36.247 : en:Chapter 18

File list

  • Dragon.Ball.Movies.1080p.TOEI.HD.10-Bit.Dual-Audio.AC3.x265-iAHD
    • Dragon.Ball.Curse.of.the.Blood.Rubies.1986.1080p.TOEI.HD.10-Bit.Dual-Audio.AC3.x265-iAHD.mkv (2.1 GiB)
    • Dragon.Ball.Mystical.Adventure.1988.1080p.TOEI.HD.10-Bit.Dual-Audio.AC3.x265-iAHD.mkv (2.4 GiB)
    • Dragon.Ball.Sleeping.Princess.in.Devil's.Castle.1987.1080p.TOEI.HD.10-Bit.Dual-Audio.AC3.x265-iAHD.mkv (2.2 GiB)
    • Dragon.Ball.The.Path.to.Power.1996.1080p.TOEI.HD.10-Bit.Dual-Audio.AC3.x265-iAHD.mkv (4.2 GiB)
Collection ? Does that mean not re worked subtitles?
"HD" is a bit vague as there is the AMZN and BD release.