[neoHEVC] Vivy - Fluorite Eye's Song [Season 1 + Special] [BD 1080p x265 HEVC AAC] [Dual Audio]

Category:
Date:
2021-12-14 18:47 UTC
Submitter:
Seeders:
5
Information:
Leechers:
1
File size:
5.4 GiB
Completed:
607
Info hash:
ccaf948d2d0c5012650bfcb7534e3d5f4c893e51
![](https://i.imgur.com/RBlGp48.png) *Join **[Discord](https://discord.gg/47Q7FdB54e)** for Current Projects and Seed-Request in case of no available seeds.* **Vivy: Fluorite Eye's Song [Season 1 + Special]** *with `Dual Audio (Jpn/Eng)` and `Eng Subs` in `BD 1080p HEVC`* Encode of [TTGA] (BDREMUX x264 AVC FLAC) to (x265 HEVC AAC) with English audio tracks from [Golumpa] and English subtitles from [YameteTomete]. *Work done on subtitles of Special episode: Manual retiming, typesetting and styling like season 1.* *Side Note: The special is [Single Audio] only. Replaced the English audio track from EP 1 of source mux with a new track from Golumpa, as the included track had cut off audio at the very end. Unified chapter names between all episodes.* ![](https://i.imgur.com/4iegWLL.png) **[Trailer](https://www.youtube.com/watch?v=Y653dJQ_ecs)** ![](https://i.imgur.com/3UxGuWB.png) ![](https://i.imgur.com/ZCtSawZ.png) **[MyAnimeList: Season 1](https://myanimelist.net/anime/46095/Vivy__Fluorite_Eyes_Song)** ![](https://i.imgur.com/3UxGuWB.png) ![](https://i.imgur.com/ZCtSawZ.png) **[MyAnimeList: Special](https://myanimelist.net/anime/49241/Vivy__Fluorite_Eyes_Song_-_To_Make_Everyone_Happy_With_My_Singing)** --- **Patches** Episode 7 has the English track twice. You can get it fixed by applying the below linked patch. *Extract -> Copy EP 7 into the folder and run the script depending on your OS (3.Apply Patch-Windows.bat for Windows)* ๐Ÿ”— **[Episode 7 JPN Track Fix (xDelta-Patch)](https://drive.google.com/file/d/19gr5eGgY2ztNFHJJHx3R7HMfGfw9ig5t/view?usp=sharing)** --- **Synopsis** When highly evolved AIs set out to eradicate mankind, the carnage that ensues fills the air with the stench of fresh blood and burning bodies. In a desperate bid to prevent the calamity from ever occurring, a scientist bets everything on a remnant from the past. Turning the clock back a hundred years, AIs are already an integral part of human society, programmed with specific missions meant to be carried out for their entire course of operation. Vivy, the first ever autonomous AI, is a songstress tasked with spreading happiness through her voice. In a theme park where she hardly ever gets a proper audience, she strives to pour her heart out into her performances, bound to repeat it day after dayโ€”that is, until an advanced AI from the future appears before her and enlists her help in stopping a devastating war a hundred years in the making. With no time to process the revelation that flips her world upside down, Vivy is catapulted into a century-long journey to avert the violent history yet to come. ![](https://i.imgur.com/8yR0rBq.png) --- **Language Options** I included three simple scripts that you can apply to these files to do the following (Windows only): 1. Change [Default Tracks]: Switches default tracks to *A:Japanese S:Dialog* 2. Make [Single Audio] Japanese: Throws out *English audio* and *Signs&Songs subtitles* tracks 3. Make [Single Audio] English: Throws out *Japanese audio* and *Dialogue subtitles* tracks To apply these put all the video files into the *Language Options* folder and run the .bat file. --- **Comparison** *Open links, toggle with mouseclick and check title.* [![](https://i.imgur.com/rrvSMTv.png)](https://slow.pics/c/FU3DmVUS) [![](https://i.imgur.com/X3ECeig.png)](https://slow.pics/c/KtKVGnkj) [![](https://i.imgur.com/X6LsEiB.png)](https://slow.pics/c/p8zGMawF) --- **Source** ๐Ÿ—ƒ๏ธ Video, Audio and Subs: **[[TTGA]](https://nyaa.si/view/1463812)** ๐Ÿ’ฌ *Subtitles Info: [YameteTomete] - Format `ASS`* --- **Media Info** ๐Ÿ†” [Full Mediainfo incl. Encoder Settings](https://pastebin.com/JKvQssSQ) ``` General Unique ID : 177497861713584787780156642854794323111 (0x8588D83DDBD7A9C94F41F192CF2E64A7) Complete name : Vivy - Fluorite Eye's Song - S01E01.mkv Format : Matroska Format version : Version 4 File size : 421 MiB Duration : 26 min 12 s Overall bit rate : 2 245 kb/s Movie name : Vivy - Fluorite Eye's Song - S01E01 Encoded date : UTC 2021-12-14 17:20:22 Writing application : mkvmerge v57.0.0 ('Till The End') 64-bit Writing library : libebml v1.4.2 + libmatroska v1.6.4 Cover : Yes Attachments : cover.jpg / Alegreya-Bold.ttf / Amaranth-Regular.ttf / ARNOPRO-REGULAR.otf / Barlow-MediumItalic.ttf / DAGGERSQUARE.otf / GandhiSans-Bold.otf / GandhiSans-BoldItalic.otf / PT_Serif-Web-Bold.ttf / PTSans-Bold.ttf Video ID : 1 Format : HEVC Format/Info : High Efficiency Video Coding Format profile : Main 10@L4.1@High Codec ID : V_MPEGH/ISO/HEVC Duration : 26 min 12 s Bit rate : 1 849 kb/s Width : 1 920 pixels Height : 1 080 pixels Display aspect ratio : 16:9 Frame rate mode : Constant Frame rate : 23.976 (24000/1001) FPS Color space : YUV Chroma subsampling : 4:2:0 Bit depth : 10 bits Bits/(Pixel*Frame) : 0.037 Stream size : 346 MiB (82%) Writing library : x265 3.5+10+13-7c9bc0cb14:[Windows][GCC 10.2.0][64 bit] 10bit Encoding settings : <Check Link Above> Default : Yes Forced : No Audio #1 ID : 2 Format : AAC LC Format/Info : Advanced Audio Codec Low Complexity Codec ID : A_AAC-2 Duration : 26 min 11 s Bit rate : 192 kb/s Channel(s) : 2 channels Channel layout : L R Sampling rate : 48.0 kHz Frame rate : 46.875 FPS (1024 SPF) Compression mode : Lossy Stream size : 36.5 MiB (9%) Title : Stereo - ENG (AAC) Language : English Default : Yes Forced : No Audio #2 ID : 3 Format : AAC LC Format/Info : Advanced Audio Codec Low Complexity Codec ID : A_AAC-2 Duration : 26 min 12 s Bit rate : 188 kb/s Channel(s) : 2 channels Channel layout : L R Sampling rate : 48.0 kHz Frame rate : 46.875 FPS (1024 SPF) Compression mode : Lossy Stream size : 35.3 MiB (8%) Title : Stereo - JPN (AAC) Language : Japanese Default : No Forced : No Text #1 ID : 4 Format : ASS Codec ID : S_TEXT/ASS Codec ID/Info : Advanced Sub Station Alpha Duration : 25 min 36 s Bit rate : 630 b/s Count of elements : 786 Compression mode : Lossless Stream size : 118 KiB (0%) Title : Signs & Songs - ENG (ASS) Language : English Default : Yes Forced : No Text #2 ID : 5 Format : ASS Codec ID : S_TEXT/ASS Codec ID/Info : Advanced Sub Station Alpha Duration : 26 min 3 s Bit rate : 745 b/s Count of elements : 1165 Compression mode : Lossless Stream size : 142 KiB (0%) Title : Dialogue - ENG (ASS) Language : English Default : No Forced : No Menu 00:00:00.000 : Intro 00:03:27.999 : Part A 00:12:01.053 : Part B 00:24:26.089 : ED+Cast 00:25:56.012 : PV ```

File list

  • [neoHEVC] Vivy - Fluorite Eye's Song [Season 1 + Special] [BD 1080p x265 HEVC AAC] [Dual Audio]
    • Language Options
      • 1. Change [Default Tracks].bat (162 Bytes)
      • 2. Make [Single Audio] Japanese.bat (166 Bytes)
      • 3. Make [Single Audio] English.bat (124 Bytes)
      • mkvmerge.exe (9.6 MiB)
      • readme.txt (513 Bytes)
    • Season 1
      • Vivy - Fluorite Eye's Song - S01E01.mkv (420.8 MiB)
      • Vivy - Fluorite Eye's Song - S01E02.mkv (338.5 MiB)
      • Vivy - Fluorite Eye's Song - S01E03.mkv (281.7 MiB)
      • Vivy - Fluorite Eye's Song - S01E04.mkv (292.2 MiB)
      • Vivy - Fluorite Eye's Song - S01E05.mkv (367.9 MiB)
      • Vivy - Fluorite Eye's Song - S01E06.mkv (339.4 MiB)
      • Vivy - Fluorite Eye's Song - S01E07.mkv (278.1 MiB)
      • Vivy - Fluorite Eye's Song - S01E08.mkv (402.4 MiB)
      • Vivy - Fluorite Eye's Song - S01E09.mkv (463.3 MiB)
      • Vivy - Fluorite Eye's Song - S01E10.mkv (284.3 MiB)
      • Vivy - Fluorite Eye's Song - S01E11.mkv (502.8 MiB)
      • Vivy - Fluorite Eye's Song - S01E12.mkv (599.2 MiB)
      • Vivy - Fluorite Eye's Song - S01E13.mkv (462.2 MiB)
    • Specials
      • Vivy - Fluorite Eye's Song - S00E01 - (S1E13.5 Special To Make Everyone Happy With My Singing).mkv (447.4 MiB)
thanks youuuuu!
Amazing release as always Man! This anime is so beautiful Can't remember how many times I've replayed 'Sing My Pleasure' (I love Grace's version more than Diva's oops)
Just a heads up, episode 7 has only English audio encoded as both audio tracks.

neoborn (uploader)

User
**@Handelo** Thanks for reporting, check patch in description.