[Holomux] Monthly Girls' Nozaki-kun Special [BD 1080p x264 10bit FLAC 2.0 Dual]

Category:
Date:
2021-12-11 16:32 UTC
Submitter:
Seeders:
9
Information:
Leechers:
0
File size:
1.6 GiB
Completed:
359
Info hash:
ae76f97018e7ee714f784ec19f88cf2df9e443e0
If there are no seeds or would like to request a release I haven’t uploaded, add and message me on Discord: Holo#5151 *Any help in seeding is appreciated. Thank you.* `Raws: E-HARO Raws` `English Audio: Moby JJ` `Subs: Moby JJ` ``` General Unique ID : 5347596179136089858018427231621719809 (0x405E8D90088056831F427705DC9A701) Complete name : [Holomux] Monthly Girls' Nozaki-kun Special 01 [BD 1080p x264 10bit FLAC 2.0 Dual][2705A57A].mkv Format : Matroska Format version : Version 4 File size : 243 MiB Duration : 3 min 5 s Overall bit rate mode : Variable Overall bit rate : 10.9 Mb/s Encoded date : UTC 2021-07-16 01:31:29 Writing application : mkvmerge v59.0.0 ('Shining Star') 64-bit Writing library : libebml v1.4.2 + libmatroska v1.6.4 Attachments : AvenirLTStd-Black.otf / GothamRnd-Bold.otf / GothamRnd-BoldIta.otf / GothamRnd-MedIta.otf / GothamRnd-Medium.otf / OpenSans-Bold.otf / OpenSans-Regular.otf / pencilfied.ttf / RAVIE.TTF / RolandBecker Bold_0.ttf / RolandBecker_0.ttf Video ID : 1 Format : AVC Format/Info : Advanced Video Codec Format profile : High 10@L5 Format settings : CABAC / 5 Ref Frames Format settings, CABAC : Yes Format settings, Reference frames : 5 frames Codec ID : V_MPEG4/ISO/AVC Duration : 3 min 4 s Bit rate : 9 608 kb/s Width : 1 920 pixels Height : 1 080 pixels Display aspect ratio : 16:9 Frame rate mode : Constant Frame rate : 23.976 (24000/1001) FPS Color space : YUV Chroma subsampling : 4:2:0 Bit depth : 10 bits Scan type : Progressive Bits/(Pixel*Frame) : 0.193 Stream size : 211 MiB (87%) Title : Gekkan Shoujo Nozaki-kun sp.1 «Is That Handsome Guy a Guy Friend?? Or a Boyfriend??» Writing library : x264 core 142 r2409 d6b4e63 Encoding settings : cabac=1 / ref=5 / deblock=1:-3:-3 / analyse=0x3:0x113 / me=umh / subme=9 / psy=1 / psy_rd=0.90:0.00 / mixed_ref=1 / me_range=24 / chroma_me=1 / trellis=2 / 8x8dct=1 / cqm=0 / deadzone=21,11 / fast_pskip=1 / chroma_qp_offset=-2 / threads=12 / lookahead_threads=3 / sliced_threads=0 / nr=0 / decimate=1 / interlaced=0 / bluray_compat=0 / constrained_intra=0 / bframes=11 / b_pyramid=2 / b_adapt=2 / b_bias=0 / direct=1 / weightb=1 / open_gop=0 / weightp=2 / keyint=240 / keyint_min=23 / scenecut=40 / intra_refresh=0 / rc=crf / mbtree=0 / crf=15.0 / qcomp=0.75 / qpmin=0 / qpmax=81 / qpstep=4 / ip_ratio=1.40 / pb_ratio=1.30 / aq=1:0.85 Default : Yes Forced : No Color range : Limited Color primaries : BT.709 Transfer characteristics : BT.709 Matrix coefficients : BT.709 Audio #1 ID : 2 Format : FLAC Format/Info : Free Lossless Audio Codec Codec ID : A_FLAC Duration : 3 min 5 s Bit rate mode : Variable Bit rate : 625 kb/s Channel(s) : 2 channels Channel layout : L R Sampling rate : 48.0 kHz Frame rate : 11.721 FPS (4095 SPF) Bit depth : 16 bits Compression mode : Lossless Stream size : 13.9 MiB (6%) Title : English 2.0 FLAC Writing library : libFLAC 1.2.1 (UTC 2007-09-17) Language : English Default : Yes Forced : No Audio #2 ID : 3 Format : FLAC Format/Info : Free Lossless Audio Codec Codec ID : A_FLAC Duration : 3 min 4 s Bit rate mode : Variable Bit rate : 735 kb/s Channel(s) : 2 channels Channel layout : L R Sampling rate : 48.0 kHz Frame rate : 11.719 FPS (4096 SPF) Bit depth : 16 bits Compression mode : Lossless Stream size : 16.2 MiB (7%) Title : Japanese 2.0 FLAC Writing library : libFLAC 1.2.1 (UTC 2007-09-17) Language : Japanese Default : Yes Forced : No Text #1 ID : 4 Format : ASS Codec ID : S_TEXT/ASS Codec ID/Info : Advanced Sub Station Alpha Duration : 2 min 52 s Bit rate : 6 476 b/s Count of elements : 1172 Compression mode : Lossless Stream size : 136 KiB (0%) Title : [Moby JJ] Signs & Songs Language : English Default : Yes Forced : No Text #2 ID : 5 Format : ASS Codec ID : S_TEXT/ASS Codec ID/Info : Advanced Sub Station Alpha Duration : 2 min 52 s Bit rate : 6 642 b/s Count of elements : 1229 Compression mode : Lossless Stream size : 140 KiB (0%) Title : [Moby JJ] Full Subtitles Language : English Default : No Forced : No ```

File list

  • [Holomux] Monthly Girls' Nozaki-kun Special [BD 1080p x264 10bit FLAC 2.0 Dual]
    • [Holomux] Monthly Girls' Nozaki-kun Special 01 [BD 1080p x264 10bit FLAC 2.0 Dual][2705A57A].mkv (242.7 MiB)
    • [Holomux] Monthly Girls' Nozaki-kun Special 02 [BD 1080p x264 10bit FLAC 2.0 Dual][AD6B7783].mkv (255.6 MiB)
    • [Holomux] Monthly Girls' Nozaki-kun Special 03 [BD 1080p x264 10bit FLAC 2.0 Dual][702F0FA2].mkv (285.4 MiB)
    • [Holomux] Monthly Girls' Nozaki-kun Special 04 [BD 1080p x264 10bit FLAC 2.0 Dual][EFBC6E43].mkv (309.0 MiB)
    • [Holomux] Monthly Girls' Nozaki-kun Special 05 [BD 1080p x264 10bit FLAC 2.0 Dual][50E08FFA].mkv (240.1 MiB)
    • [Holomux] Monthly Girls' Nozaki-kun Special 06 [BD 1080p x264 10bit FLAC 2.0 Dual][EEFABDCB].mkv (264.2 MiB)