[Holomux] Monthly Girls' Nozaki-kun [BD 1080p x264 10bit FLAC 2.0 Dual]

Category:
Date:
2021-12-11 16:27 UTC
Submitter:
Seeders:
17
Information:
Leechers:
2
File size:
24.9 GiB
Completed:
429
Info hash:
b453646935faba9306097db23b3c71fa92656d9d
If there are no seeds or would like to request a release I haven’t uploaded, add and message me on Discord: Holo#5151 *Any help in seeding is appreciated. Thank you.* `Raws: E-HARO Raws` `English Audio: Moby JJ` `Subs: Moby JJ` `Chapters: Yurasuka` ``` General Unique ID : 339773999240881611650951947548449854134 (0xFF9E1789C9A06966EF8F0E0C1AF052B6) Complete name : [Holomux] Monthly Girls' Nozaki-kun 01 [BD 1080p x264 10bit FLAC 2.0 Dual][AD30B5C0].mkv Format : Matroska Format version : Version 4 File size : 1.98 GiB Duration : 23 min 57 s Overall bit rate mode : Variable Overall bit rate : 11.8 Mb/s Encoded date : UTC 2021-07-14 02:35:24 Writing application : mkvmerge v59.0.0 ('Shining Star') 64-bit Writing library : libebml v1.4.2 + libmatroska v1.6.4 Attachments : ALBED.TTF / AmateurComic.ttf / ARLRDBD.TTF / AvenirLTStd-Black.otf / Big Fat Marker.ttf / calibrib.ttf / calibriz.ttf / erasdust.ttf / marker / pala.ttf / palab.ttf / Passing Notes.otf / pencilfied.ttf / Profile-Regular.otf / RaysHand-Regular.ttf / RolandBecker Bold.ttf / scott_.ttf / segoeprb.ttf / SEMPB_.TTF / ufonts.com_chianti-win95bt.ttf / AdobeGothicStd-Bold.ttf / ALBED_.TTF / Alberta_Regular.ttf / ALMAGRO.TTF / AmateurComic.otf / animeace2_reg.otf / Arial Rounded MT_0.ttf / ARLRDBD_1.TTF / AuriolLTStd-Black.otf / Big Fat Marker_0.ttf / calibri.otf / calibrib.otf / calibrii.otf / calibril.otf / calibrili.otf / calibriz.otf / Disney_Simple.ttf / edo.ttf / EFN_OknoFont.ttf / ERASDUS0.TTF / GothamRnd-Bold.otf / GothamRnd-BoldIta.otf / GothamRnd-MedIta.otf / GothamRnd-Medium.otf / Marker SD 1.2.ttf / Montara-BoldGothic.otf / Montara-Gothic.otf / Niew CroMagnon.ttf / NothingYouCouldSay.otf / OpenSans-Bold.otf / OpenSans-Regular.otf / OpenSans-Semibold.otf / pala.otf / palabi.otf / palai.otf / Palatino Linotype Bold.otf / PAPEJE.TTF / Passing Notes_0.otf / Pen_of_Truth___FREE_FONT_by_Sonira.ttf / Pinguino.ttf / plantc.ttf / PLASTIC TOMATO.TTF / Profile-Medium.otf / Prototype.ttf / raavi.otf / raavib.otf / RAVIE.TTF / RaysHand-Regular_0.ttf / rexlia rg.otf / RolandBecker Bold_0.ttf / RolandBecker_0.ttf / RubThis.TTF / scott__.ttf / segoepr.otf / segoeprb.otf / SEMPB__.TTF / SEMPER_.TTF / SEMPI__.TTF / AmateurComic_0.ttf / GothamRnd-Bold_0.otf / GothamRnd-BoldIta_0.otf / GothamRnd-MedIta_1.otf / GothamRnd-Medium_1.otf / OpenSans-Bold.ttf / OpenSans-Regular.ttf / OpenSans-Semibold.ttf / ufonts.com_cc_astro_city.ttf Video ID : 1 Format : AVC Format/Info : Advanced Video Codec Format profile : High 10@L5 Format settings : CABAC / 6 Ref Frames Format settings, CABAC : Yes Format settings, Reference frames : 6 frames Codec ID : V_MPEG4/ISO/AVC Duration : 23 min 56 s Bit rate : 10.4 Mb/s Width : 1 920 pixels Height : 1 080 pixels Display aspect ratio : 16:9 Frame rate mode : Constant Frame rate : 23.976 (24000/1001) FPS Color space : YUV Chroma subsampling : 4:2:0 Bit depth : 10 bits Scan type : Progressive Bits/(Pixel*Frame) : 0.209 Stream size : 1.74 GiB (88%) Title : Gekkan Shoujo Nozaki-kun ep.01 «This Love... Is Being Turned Into a Shojo Manga.» Writing library : x264 core 142 r2409 d6b4e63 Encoding settings : cabac=1 / ref=6 / deblock=1:-3:-3 / analyse=0x3:0x113 / me=umh / subme=9 / psy=1 / psy_rd=0.90:0.00 / mixed_ref=1 / me_range=24 / chroma_me=1 / trellis=2 / 8x8dct=1 / cqm=0 / deadzone=21,11 / fast_pskip=1 / chroma_qp_offset=-2 / threads=12 / lookahead_threads=3 / sliced_threads=0 / nr=0 / decimate=1 / interlaced=0 / bluray_compat=0 / constrained_intra=0 / bframes=11 / b_pyramid=2 / b_adapt=2 / b_bias=0 / direct=1 / weightb=1 / open_gop=0 / weightp=2 / keyint=240 / keyint_min=23 / scenecut=40 / intra_refresh=0 / rc=crf / mbtree=0 / crf=15.0 / qcomp=0.75 / qpmin=0 / qpmax=81 / qpstep=4 / ip_ratio=1.40 / pb_ratio=1.30 / aq=1:0.85 Default : Yes Forced : No Color range : Limited Color primaries : BT.709 Transfer characteristics : BT.709 Matrix coefficients : BT.709 Audio #1 ID : 2 Format : FLAC Format/Info : Free Lossless Audio Codec Codec ID : A_FLAC Duration : 23 min 57 s Bit rate mode : Variable Bit rate : 630 kb/s Channel(s) : 2 channels Channel layout : L R Sampling rate : 48.0 kHz Frame rate : 11.719 FPS (4096 SPF) Bit depth : 16 bits Compression mode : Lossless Stream size : 108 MiB (5%) Title : English FLAC 2.0 Writing library : libFLAC 1.2.1 (UTC 2007-09-17) Language : English Default : Yes Forced : No Audio #2 ID : 3 Format : FLAC Format/Info : Free Lossless Audio Codec Codec ID : A_FLAC Duration : 23 min 56 s Bit rate mode : Variable Bit rate : 706 kb/s Channel(s) : 2 channels Channel layout : L R Sampling rate : 48.0 kHz Frame rate : 11.719 FPS (4096 SPF) Bit depth : 16 bits Compression mode : Lossless Stream size : 121 MiB (6%) Title : Japanese FLAC 2.0 Writing library : libFLAC 1.2.1 (UTC 2007-09-17) Language : Japanese Default : Yes Forced : No Text #1 ID : 4 Format : ASS Codec ID : S_TEXT/ASS Codec ID/Info : Advanced Sub Station Alpha Duration : 22 min 35 s Bit rate : 1 492 b/s Count of elements : 2385 Compression mode : Lossless Stream size : 247 KiB (0%) Title : Signs & Songs Language : English Default : Yes Forced : Yes Text #2 ID : 5 Format : ASS Codec ID : S_TEXT/ASS Codec ID/Info : Advanced Sub Station Alpha Duration : 23 min 25 s Bit rate : 1 540 b/s Count of elements : 2700 Compression mode : Lossless Stream size : 264 KiB (0%) Title : Full Subtitles [Quincetuple] Language : English Default : No Forced : No Menu 00:00:00.000 : Intro 00:02:18.013 : Opening 00:03:48.019 : Part A 00:11:09.961 : Part B 00:21:19.945 : Ending 00:22:49.910 : Part C 00:23:40.919 : Preview ```

File list

  • [Holomux] Monthly Girls' Nozaki-kun [BD 1080p x264 10bit FLAC 2.0 Dual]
    • [Holomux] Monthly Girls' Nozaki-kun 01 [BD 1080p x264 10bit FLAC 2.0 Dual][AD30B5C0].mkv (2.0 GiB)
    • [Holomux] Monthly Girls' Nozaki-kun 02 [BD 1080p x264 10bit FLAC 2.0 Dual][E8E13781].mkv (2.0 GiB)
    • [Holomux] Monthly Girls' Nozaki-kun 03 [BD 1080p x264 10bit FLAC 2.0 Dual][554F6D4A].mkv (2.0 GiB)
    • [Holomux] Monthly Girls' Nozaki-kun 04 [BD 1080p x264 10bit FLAC 2.0 Dual][A6A6A6AA].mkv (2.0 GiB)
    • [Holomux] Monthly Girls' Nozaki-kun 05 [BD 1080p x264 10bit FLAC 2.0 Dual][572588F7].mkv (2.0 GiB)
    • [Holomux] Monthly Girls' Nozaki-kun 06 [BD 1080p x264 10bit FLAC 2.0 Dual][A0BE41EA].mkv (2.0 GiB)
    • [Holomux] Monthly Girls' Nozaki-kun 07 [BD 1080p x264 10bit FLAC 2.0 Dual][AF4220EB].mkv (2.2 GiB)
    • [Holomux] Monthly Girls' Nozaki-kun 08 [BD 1080p x264 10bit FLAC 2.0 Dual][3BEF42C8].mkv (2.2 GiB)
    • [Holomux] Monthly Girls' Nozaki-kun 09 [BD 1080p x264 10bit FLAC 2.0 Dual][44E0EAA6].mkv (2.3 GiB)
    • [Holomux] Monthly Girls' Nozaki-kun 10 [BD 1080p x264 10bit FLAC 2.0 Dual][8F3141A0].mkv (2.2 GiB)
    • [Holomux] Monthly Girls' Nozaki-kun 11 [BD 1080p x264 10bit FLAC 2.0 Dual][ED8F83DA].mkv (2.1 GiB)
    • [Holomux] Monthly Girls' Nozaki-kun 12 [BD 1080p x264 10bit FLAC 2.0 Dual][10605656].mkv (1.8 GiB)
At long last, it has arrived on nyaa

dirty_old_holo (uploader)

User
lol I planned to put everything on nyaa in due time. Just need help seeding is all.
Don't set default flags on more than one track of a track type.
Set default flags on all tracks so none of them feel left out
~~Anyone else having problems with this torrent connecting to seeders? Been stuck downloading metadata for the last 2 days.~~ Using the torrent link instead of magnet fixed it.

dirty_old_holo (uploader)

User
@vodka didn't realized that. Will make note of that going forward. @Mabby still having issues with magnet?
@dirty_old_holo Unfortunately seems that way, checking again with your recent Sora no Woto release. No idea why but your torrent magnets don't seem to play nicely with the latest qBittorrent 4.4.x libtorrent 2.x builds. Other stuff on nyaa magnet downloads fine. May be because your torrent is private? When I use the magnet link and then download / open the torrent file, it says trackers cannot be merged because it's a private torrent.

dirty_old_holo (uploader)

User
@Mabby that's exactly it. I use the same client to make torrents for private trackers and I forgot to uncheck that box. Sorry about that!
@dirty_old_holo Ah, I see. In that case, do you need to repost your Sora torrent? As it still doesn't seem to work for me.
> it says trackers cannot be merged because it’s a private torrent. @Mabby the magnet already all the trackers so being able to merge them won't solve your problem, which has more to do with the small number of seeds/lack of connectable peers capable of giving you the metadata (which is already contained in the torrent). Though the private flag does make finding peers harder. I've added that one to my seedbox so you should be able to get it now.