[ADF] Love Live! Sunshine!! Aqours - KU-RU-KU-RU Cruller! (BD 1920x1080 x264 10bit FLAC).mkv

Category:
Date:
2021-12-01 04:41 UTC
Submitter:
Seeders:
6
Information:
Leechers:
0
File size:
444.4 MiB
Completed:
130
Info hash:
29f5a09c828f9385374eb5e4d407608da5af4259
Join in to our chats in [Discord](https://discord.gg/EkcFw3k) and [Telegram](https://t.me/AnimeDreamSubs) Follow us on the social networks in [Facebook](https://www.facebook.com/AnimeDreamSubs), [Twitter](https://www.twitter.com/AnimeDreamSubs) and [Instagram](https://www.instagram.com/animedreamsubs) ![](https://puu.sh/IsJUE/f78660e323.jpg) ```General Unique ID : 331834063296798299338828464932520741714 (0xF9A4EA78E33DC67DB7ED5BD760AC4B52) Complete name : E:\Seedeos\[ADF] Love Live! Sunshine!! Aqours - KU-RU-KU-RU Cruller! (BD 1920x1080 x264 10bit FLAC).mkv Format : Matroska Format version : Version 2 File size : 444 MiB Duration : 7 min 41 s Overall bit rate mode : Variable Overall bit rate : 8 079 kb/s Encoded date : UTC 2021-11-29 21:21:07 Writing application : mkvmerge v42.0.0 ('Overtime') 64-bit Writing library : libebml v1.3.10 + libmatroska v1.5.2 Video ID : 1 Format : AVC Format/Info : Advanced Video Codec Format profile : High 10@L5 Format settings : CABAC / 5 Ref Frames Format settings, CABAC : Yes Format settings, Reference fra : 5 frames Codec ID : V_MPEG4/ISO/AVC Duration : 7 min 41 s Bit rate : 6 444 kb/s Width : 1 920 pixels Height : 1 080 pixels Display aspect ratio : 16:9 Frame rate mode : Constant Frame rate : 23.976 (24000/1001) FPS Color space : YUV Chroma subsampling : 4:2:0 Bit depth : 10 bits Scan type : Progressive Bits/(Pixel*Frame) : 0.130 Stream size : 355 MiB (80%) Writing library : x264 core 157 r2969 d4099dd Encoding settings : cabac=1 / ref=5 / deblock=1:1:1 / analyse=0x3:0x133 / me=umh / subme=10 / psy=1 / psy_rd=0.40:0.00 / mixed_ref=1 / me_range=32 / chroma_me=1 / trellis=2 / 8x8dct=1 / cqm=0 / deadzone=21,11 / fast_pskip=1 / chroma_qp_offset=-2 / threads=12 / lookahead_threads=3 / sliced_threads=0 / nr=0 / decimate=1 / interlaced=0 / bluray_compat=0 / constrained_intra=0 / bframes=10 / b_pyramid=2 / b_adapt=2 / b_bias=0 / direct=3 / weightb=1 / open_gop=0 / weightp=2 / keyint=240 / keyint_min=23 / scenecut=40 / intra_refresh=0 / rc_lookahead=60 / rc=crf / mbtree=1 / crf=15.0 / qcomp=0.60 / qpmin=0 / qpmax=81 / qpstep=4 / ip_ratio=1.40 / aq=1:0.60 Default : Yes Forced : No Audio ID : 2 Format : FLAC Format/Info : Free Lossless Audio Codec Codec ID : A_FLAC Duration : 7 min 41 s Bit rate mode : Variable Bit rate : 1 633 kb/s Channel(s) : 2 channels Channel layout : L R Sampling rate : 48.0 kHz Frame rate : 11.719 FPS (4096 SPF) Bit depth : 24 bits Compression mode : Lossless Stream size : 89.8 MiB (20%) Writing library : libFLAC 1.3.2 (UTC 2017-01-01) Default : Yes Forced : No ``` Próximamente se le agregará subtítulos. Gracias juyguw@TSDM por el bdmv.

File list

  • [ADF] Love Live! Sunshine!! Aqours - KU-RU-KU-RU Cruller! (BD 1920x1080 x264 10bit FLAC).mkv (444.4 MiB)