Wadake no Otokotachi EP06 720p HDTV x264 AAC-JPTVclub [Japanese Subtitle]

Category:
Date:
2021-11-30 17:56 UTC
Submitter:
Anonymous
Seeders:
2
Information:
No information.
Leechers:
1
File size:
1.0 GiB
Completed:
130
Info hash:
862792be4afcb67a4c8da3411c256fe62fc843c3
📁 FILE: Wadake no Otokotachi EP06 720p HDTV x264 AAC-JPTVclub.mkv ℹ️ GENERAL: Matroska / 48 min 15 s 📽️ VIDEO: AVC / 1280 x 720 / 16:9 / 29.970 (30000/1001) FPS / 8 bits / 2740kb/s / High@L4.1 / Progressive / BT.709 🔊 AUDIO 1: Japanese / AAC LC / 2.0ch / 252kb/s ⚙️ ENCODE SETTINGS: cabac=1 / ref=9 / deblock=1:-2:-2 / analyse=0x3:0x133 / me=umh / subme=10 / psy=1 / psy_rd=1.00:0.15 / mixed_ref=1 / me_range=24 / chroma_me=1 / trellis=2 / 8x8dct=1 / cqm=0 / deadzone=21,11 / fast_pskip=1 / chroma_qp_offset=-3 / threads=4 / lookahead_threads=1 / sliced_threads=0 / nr=0 / decimate=1 / interlaced=0 / bluray_compat=0 / constrained_intra=0 / bframes=12 / b_pyramid=2 / b_adapt=2 / b_bias=0 / direct=3 / weightb=1 / open_gop=0 / weightp=2 / keyint=250 / keyint_min=25 / scenecut=40 / intra_refresh=0 / rc_lookahead=60 / rc=crf / mbtree=1 / crf=17.5 / qcomp=0.60 / qpmin=0 / qpmax=69 / qpstep=4 / ip_ratio=1.40 / aq=1:1.00 ``` General Unique ID : 138113126902533612473809552711606087468 (0x67E79EE4FAD3CCA2A56FA38E8D802F2C) Complete name : Wadake no Otokotachi EP06 720p HDTV x264 AAC-JPTVclub.mkv Format : Matroska Format version : Version 4 File size : 1.01 GiB Duration : 48 min 15 s Overall bit rate : 2 995 kb/s Movie name : 和田家の男たち #6 / 和田家の男たち #6 Track name/Position : 6 Encoded by : JPTV.club Released date : 2021-11-27 Encoded date : UTC 2021-11-29 14:30:40 Writing application : mkvmerge v35.0.0 ('All The Love In The World') 64-bit Writing library : libebml v1.3.9 + libmatroska v1.5.2 / Lavf57.71.100 Comment : …the world kept turning and the turtle moved. PUBLISHER : ABCテレビ1 THANKS_TO : JPTV.club Firebrigade TMDB : tv/136690 Video ID : 1 Format : AVC Format/Info : Advanced Video Codec Format profile : High@L4.1 Format settings : CABAC / 9 Ref Frames Format settings, CABAC : Yes Format settings, Reference frames : 9 frames Codec ID : V_MPEG4/ISO/AVC Duration : 48 min 15 s Bit rate : 2 740 kb/s Width : 1 280 pixels Height : 720 pixels Display aspect ratio : 16:9 Frame rate mode : Constant Frame rate : 29.970 (30000/1001) FPS Color space : YUV Chroma subsampling : 4:2:0 Bit depth : 8 bits Scan type : Progressive Bits/(Pixel*Frame) : 0.099 Stream size : 946 MiB (91%) Writing library : x264 core 159 Encoding settings : cabac=1 / ref=9 / deblock=1:-2:-2 / analyse=0x3:0x133 / me=umh / subme=10 / psy=1 / psy_rd=1.00:0.15 / mixed_ref=1 / me_range=24 / chroma_me=1 / trellis=2 / 8x8dct=1 / cqm=0 / deadzone=21,11 / fast_pskip=1 / chroma_qp_offset=-3 / threads=4 / lookahead_threads=1 / sliced_threads=0 / nr=0 / decimate=1 / interlaced=0 / bluray_compat=0 / constrained_intra=0 / bframes=12 / b_pyramid=2 / b_adapt=2 / b_bias=0 / direct=3 / weightb=1 / open_gop=0 / weightp=2 / keyint=250 / keyint_min=25 / scenecut=40 / intra_refresh=0 / rc_lookahead=60 / rc=crf / mbtree=1 / crf=17.5 / qcomp=0.60 / qpmin=0 / qpmax=69 / qpstep=4 / ip_ratio=1.40 / aq=1:1.00 Language : Japanese Default : Yes Forced : No Color range : Limited Color primaries : BT.709 Transfer characteristics : BT.709 Matrix coefficients : BT.709 Audio ID : 2 Format : AAC LC Format/Info : Advanced Audio Codec Low Complexity Codec ID : A_AAC-2 Duration : 48 min 15 s Bit rate : 252 kb/s Channel(s) : 2 channels Channel layout : L R Sampling rate : 48.0 kHz Frame rate : 46.875 FPS (1024 SPF) Compression mode : Lossy Delay relative to video : 14 ms Stream size : 87.1 MiB (8%) Language : Japanese Default : Yes Forced : No Menu 00:00:00.000 : ja:パート #1 00:03:52.332 : ja:オープニング 00:03:59.339 : ja:パート #2 00:20:46.144 : ja:提供 00:20:54.253 : ja:パート #3 00:28:49.360 : ja:パート #4 00:34:52.623 : ja:パート #5 00:44:01.739 : ja:パート #6 00:47:48.599 : ja:次回予告 00:48:03.380 : ja:提供 ``` ``` h264 720p encode/ unrelated content cut/ QTGMC (selective)/ various banding+aliasing+other fixes*/ untouched audio/ chapters/ subtitles. *) especially the footage of the scene @ ~26:44 was really messed up in the original data. Minor unfixable aliasing remains here. It's as presentable as it gets. :) ``` ![alt text](https://zippyimage.com/images/2021/11/29/0382827ccaf1a3f5afb4675bec8e855a.jpg "Thumbnail Overview")

File list

  • Wadake no Otokotachi EP06
    • Wadake no Otokotachi EP06 720p HDTV x264 AAC-JPTVclub.mkv (1.0 GiB)
    • [Japanese Subtitle]Wadake no Otokotachi EP06 720p HDTV x264 AAC-JPTVclub.jpn.ass (129.2 KiB)
    • [Japanese Subtitle]Wadake no Otokotachi EP06 720p HDTV x264 AAC-JPTVclub.jpn.srt (58.3 KiB)