[Members only] 【NIJISANJI EN - Elira Pendora】 HUNTER X HUNTER 2011 TIME!!!!!! (ep 33 - 41) [2021-11-28] - 9bb06ozPVCA

Category:
Date:
2021-11-29 13:46 UTC
Submitter:
Seeders:
1
Information:
Leechers:
0
File size:
4.2 GiB
Completed:
11
Info hash:
74e746b20bd9eef7ae6f7f1c9b6817f14af7fc01
![Thumbnail](https://i.ibb.co/j5rQNSW/2021-11-28-Members-only-NIJISANJI-EN-Elira-Pendora-HUNTER-X-HUNTER-2011-TIME-ep-33-41-9bb06oz-PVCA.webp) Format : MPEG-4 >Format profile : Base Media Codec ID : isom (isom/iso2/mp41) File size : 4.15 GiB Duration : 4 h 51 min Overall bit rate mode : Variable Overall bit rate : 2 037 kb/s Writing application : Lavf59.4.102 Cover : Yes Video >ID : 1 Format : vp09 Codec ID : vp09 Duration : 4 h 51 min Bit rate : 1 933 kb/s Width : 1 920 pixels Height : 1 080 pixels Display aspect ratio : 16:9 Frame rate mode : Variable Frame rate : 60.000 FPS Minimum frame rate : 58.824 FPS Maximum frame rate : 62.500 FPS Bits/(Pixel*Frame) : 0.016 Stream size : 3.94 GiB (95%) Language : English Audio >ID : 2 Format : Opus Codec ID : Opus Duration : 4 h 51 min Duration_FirstFrame : 1 ms Bit rate mode : Variable Bit rate : 88.6 kb/s Compression mode : Lossy Stream size : 185 MiB (4%) Language : English Default : Yes Alternate group : 1

File list

  • [2021-11-28] [Members only] 【NIJISANJI EN - Elira Pendora】 HUNTER X HUNTER 2011 TIME!!!!!! (ep 33 - 41) - 9bb06ozPVCA
    • [2021-11-28] [Members only] 【NIJISANJI EN - Elira Pendora】 HUNTER X HUNTER 2011 TIME!!!!!! (ep 33 - 41) - 9bb06ozPVCA.description (1.4 KiB)
    • [2021-11-28] [Members only] 【NIJISANJI EN - Elira Pendora】 HUNTER X HUNTER 2011 TIME!!!!!! (ep 33 - 41) - 9bb06ozPVCA.live_chat.json (21.1 MiB)
    • [2021-11-28] [Members only] 【NIJISANJI EN - Elira Pendora】 HUNTER X HUNTER 2011 TIME!!!!!! (ep 33 - 41) - 9bb06ozPVCA.mp4 (4.2 GiB)
    • [2021-11-28] [Members only] 【NIJISANJI EN - Elira Pendora】 HUNTER X HUNTER 2011 TIME!!!!!! (ep 33 - 41) - 9bb06ozPVCA.webp (72.0 KiB)