[Members only] 【NIJISANJI EN - Petra Gurin】 【IDOLiSH7 TIME】SHAKING YOUR HEART! SHAKING YOUR BEAT! JIDAI WO KAKETEKU [2021-11-27] - t3bRDw759dU

Category:
Date:
2021-11-29 00:12 UTC
Submitter:
Seeders:
1
Information:
Leechers:
0
File size:
3.8 GiB
Completed:
12
Info hash:
fd25fd709ee246b6b64aaa4f35c366a24e6f34eb
![Thumbnail](https://pbs.twimg.com/media/FFONUhrVcAIQ2sT?format=jpg&name=large) Format : MPEG-4 >Format profile : Base Media Codec ID : isom (isom/iso2/mp41) File size : 3.79 GiB Duration : 5 h 9 min Overall bit rate mode : Variable Overall bit rate : 1 753 kb/s Writing application : Lavf59.4.102 Cover : Yes Video >ID : 1 Format : vp09 Codec ID : vp09 Duration : 5 h 9 min Bit rate : 1 651 kb/s Width : 1 920 pixels Height : 1 080 pixels Display aspect ratio : 16:9 Frame rate mode : Variable Frame rate : 30.000 FPS Minimum frame rate : 29.412 FPS Maximum frame rate : 30.303 FPS Bits/(Pixel*Frame) : 0.027 Stream size : 3.57 GiB (94%) Language : English Audio >ID : 2 Format : Opus Codec ID : Opus Duration : 5 h 9 min Duration_FirstFrame : 1 ms Bit rate mode : Variable Bit rate : 93.9 kb/s Compression mode : Lossy Stream size : 208 MiB (5%) Language : English Default : Yes Alternate group : 1

File list

  • [2021-11-27] [Members only] 【NIJISANJI EN - Petra Gurin】 【IDOLiSH7 TIME】SHAKING YOUR HEART! SHAKING YOUR BEAT! JIDAI WO KAKETEKU - t3bRDw759dU
    • [2021-11-27] [Members only] 【NIJISANJI EN - Petra Gurin】 【IDOLiSH7 TIME】SHAKING YOUR HEART! SHAKING YOUR BEAT! JIDAI WO KAKETEKU - t3bRDw759dU.description (1.6 KiB)
    • [2021-11-27] [Members only] 【NIJISANJI EN - Petra Gurin】 【IDOLiSH7 TIME】SHAKING YOUR HEART! SHAKING YOUR BEAT! JIDAI WO KAKETEKU - t3bRDw759dU.live_chat.json (12.8 MiB)
    • [2021-11-27] [Members only] 【NIJISANJI EN - Petra Gurin】 【IDOLiSH7 TIME】SHAKING YOUR HEART! SHAKING YOUR BEAT! JIDAI WO KAKETEKU - t3bRDw759dU.mp4 (3.8 GiB)
    • [2021-11-27] [Members only] 【NIJISANJI EN - Petra Gurin】 【IDOLiSH7 TIME】SHAKING YOUR HEART! SHAKING YOUR BEAT! JIDAI WO KAKETEKU - t3bRDw759dU.webp (88.4 KiB)