[MagicStar] Saiai no Hito ~The other side of Nihon Chinbotsu~ EP06 [WEBDL] [720p] [PARAVI]

Category:
Date:
2021-11-28 13:27 UTC
Submitter:
Seeders:
6
Information:
Leechers:
2
File size:
353.2 MiB
Completed:
821
Info hash:
10b6622b001e968a10290e15994eb68e0f5b26ea
HD 720p from Paravi. ![alt text](https://i.ibb.co/SXF8ff5/95364396903.jpg) ![alt text](https://i.ibb.co/R4V2QJK/Saiai-no-Hito-The-other-side-of-Nihon-Chinbotsu-EP06-720p-PARAVI-WEB-DL-AAC2-0-H-264-Magic-Star-mkv.jpg) ``` General Unique ID : 264721442956256714122097774126935018348 (0xC7277ED1F33DCD56A4CD1FB978178B6C) Complete name : Saiai.no.Hito.The.other.side.of.Nihon.Chinbotsu.EP06.720p.PARAVI.WEB-DL.AAC2.0.H.264-MagicStar.mkv Format : Matroska Format version : Version 4 File size : 353 MiB Duration : 20 min 18 s Overall bit rate : 2 433 kb/s Encoded date : UTC 2021-11-28 13:21:53 Writing application : mkvmerge v50.0.0 ('Awakenings') 64-bit Writing library : libebml v1.4.0 + libmatroska v1.6.2 Cover : Yes Attachments : cover.png Video ID : 1 Format : AVC Format/Info : Advanced Video Codec Format profile : High@L3.1 Format settings : CABAC / 4 Ref Frames Format settings, CABAC : Yes Format settings, Reference fra : 4 frames Codec ID : V_MPEG4/ISO/AVC Duration : 20 min 18 s Bit rate : 2 299 kb/s Width : 1 280 pixels Height : 720 pixels Display aspect ratio : 16:9 Frame rate mode : Constant Frame rate : 29.970 (29970/1000) FPS Original frame rate : 29.970 (30000/1001) FPS Color space : YUV Chroma subsampling : 4:2:0 Bit depth : 8 bits Scan type : Progressive Bits/(Pixel*Frame) : 0.083 Stream size : 334 MiB (95%) Default : Yes Forced : No Color range : Limited Color primaries : BT.709 Transfer characteristics : BT.709 Matrix coefficients : BT.709 Audio ID : 2 Format : AAC LC Format/Info : Advanced Audio Codec Low Complexity Codec ID : A_AAC-2 Duration : 20 min 17 s Bit rate : 125 kb/s Channel(s) : 2 channels Channel layout : L R Sampling rate : 48.0 kHz Frame rate : 46.875 FPS (1024 SPF) Compression mode : Lossy Stream size : 18.2 MiB (5%) Language : Japanese Default : Yes Forced : No ```

File list

Thank you so much. It will be pleasure from now on.