[MagicStar] Utsukushii Kare EP02 [WEBDL] [1080p] [HULU] [JPN_SUB]

Category:
Date:
2021-11-28 07:58 UTC
Submitter:
Seeders:
2
Information:
Leechers:
0
File size:
681.0 MiB
Completed:
316
Info hash:
e5228ef461cf8884ba962f11b37ab3a137b649b0
HD 1080p from HULU JAPAN. ![alt text](https://i.ibb.co/sVmrdzf/d9e454b8-152f-4564-a792-eedd1a001792.jpg) ![alt text](https://i.ibb.co/k6vLDVd/Utsukushii-Kare-EP02-1080p-HULU-WEB-DL-AAC2-0-H-264-Magic-Star-mkv.jpg) ``` General Unique ID : 112232327868418211561973372364031640638 (0x546F28FC1E126A3FF2761F959A4DC43E) Complete name : Utsukushii.Kare.EP02.1080p.HULU.WEB-DL.AAC2.0.H.264-MagicStar.mkv Format : Matroska Format version : Version 4 File size : 681 MiB Duration : 23 min 35 s Overall bit rate : 4 036 kb/s Encoded date : UTC 2021-11-26 09:41:30 Writing application : mkvmerge v50.0.0 ('Awakenings') 64-bit Writing library : libebml v1.4.0 + libmatroska v1.6.2 Cover : Yes Attachments : cover.png Video ID : 1 Format : AVC Format/Info : Advanced Video Codec Format profile : High@L4 Format settings : CABAC / 4 Ref Frames Format settings, CABAC : Yes Format settings, Reference fra : 4 frames Codec ID : V_MPEG4/ISO/AVC Duration : 23 min 35 s Bit rate : 3 907 kb/s Width : 1 920 pixels Height : 1 080 pixels Display aspect ratio : 16:9 Frame rate mode : Constant Frame rate : 29.970 (29970/1000) FPS Original frame rate : 29.970 (30000/1001) FPS Color space : YUV Chroma subsampling : 4:2:0 Bit depth : 8 bits Scan type : Progressive Bits/(Pixel*Frame) : 0.063 Stream size : 659 MiB (97%) Default : Yes Forced : No Color range : Limited Color primaries : BT.709 Transfer characteristics : BT.709 Matrix coefficients : BT.709 Audio ID : 2 Format : AAC LC Format/Info : Advanced Audio Codec Low Complexity Codec ID : A_AAC-2 Duration : 23 min 35 s Bit rate : 125 kb/s Channel(s) : 2 channels Channel layout : L R Sampling rate : 48.0 kHz Frame rate : 46.875 FPS (1024 SPF) Compression mode : Lossy Stream size : 21.2 MiB (3%) Language : Japanese Default : Yes Forced : No ```

File list