[MagicStar] Janai Hou no Kanojo EP07 [WEBDL] [720p] [PARAVI] [JPN_SUB]

Category:
Date:
2021-11-28 06:22 UTC
Submitter:
Seeders:
4
Information:
Leechers:
0
File size:
653.0 MiB
Completed:
620
Info hash:
b930ece92524d5b390543f66601c2802acebf36c
HD 720p from Paravi. Japanese subtitles added. ![alt text](https://i.ibb.co/9t8P9B9/95367174199.jpg) ![alt text](https://i.ibb.co/MRCDK7T/Janai-Hou-no-Kanojo-EP07-720p-PARAVI-WEB-DL-AAC2-0-H-264-Magic-Star-mkv.jpg) ``` General Unique ID : 187254937609406207591656132335681382935 (0x8CDFFD396F3F9B4403FEBD61FB2BAA17) Complete name : Janai.Hou.no.Kanojo.EP07.720p.PARAVI.WEB-DL.AAC2.0.H.264-MagicStar.mkv Format : Matroska Format version : Version 4 File size : 653 MiB Duration : 38 min 11 s Overall bit rate : 2 390 kb/s Encoded date : UTC 2021-11-23 07:05:05 Writing application : mkvmerge v50.0.0 ('Awakenings') 64-bit Writing library : libebml v1.4.0 + libmatroska v1.6.2 Cover : Yes Attachments : cover.png Video ID : 1 Format : AVC Format/Info : Advanced Video Codec Format profile : High@L3.1 Format settings : CABAC / 4 Ref Frames Format settings, CABAC : Yes Format settings, Reference fra : 4 frames Codec ID : V_MPEG4/ISO/AVC Duration : 38 min 11 s Bit rate : 2 259 kb/s Width : 1 280 pixels Height : 720 pixels Display aspect ratio : 16:9 Frame rate mode : Constant Frame rate : 29.970 (29970/1000) FPS Original frame rate : 29.970 (30000/1001) FPS Color space : YUV Chroma subsampling : 4:2:0 Bit depth : 8 bits Scan type : Progressive Bits/(Pixel*Frame) : 0.082 Stream size : 617 MiB (95%) Default : Yes Forced : No Color range : Limited Color primaries : BT.709 Transfer characteristics : BT.709 Matrix coefficients : BT.709 Audio ID : 2 Format : AAC LC Format/Info : Advanced Audio Codec Low Complexity Codec ID : A_AAC-2 Duration : 38 min 11 s Bit rate : 125 kb/s Channel(s) : 2 channels Channel layout : L R Sampling rate : 48.0 kHz Frame rate : 46.875 FPS (1024 SPF) Compression mode : Lossy Stream size : 34.3 MiB (5%) Language : Japanese Default : Yes Forced : No ```

File list

Thank you so much. It will be pleasure from now on.