[MagicStar] Janai Hou no Yoru ~Koi wa Totsuzen, Umarenai.~ EP06 [WEBDL] [720p] [PARAVI]

Category:
Date:
2021-11-28 06:20 UTC
Submitter:
Seeders:
2
Information:
Leechers:
2
File size:
256.0 MiB
Completed:
427
Info hash:
6fa20efbcac14007d7ac3405d5fefafd4adf25f8
HD 720p from Paravi. ![alt text](https://i.ibb.co/w629Pwy/95367276615.jpg) ![alt text](https://i.ibb.co/Yf6ns99/Janai-Hou-no-Yoru-Koi-wa-Totsuzen-Umarenai-EP06-720p-PARAVI-WEB-DL-AAC2-0-H-264-Magic-Star-mkv.jpg) ``` General Unique ID : 93285702973744958720467181405203603622 (0x462E2C417906267A1A106C285AD420A6) Complete name : Janai.Hou.no.Yoru.Koi.wa.Totsuzen.Umarenai.EP06.720p.PARAVI.WEB-DL.AAC2.0.H.264-MagicStar.mkv Format : Matroska Format version : Version 4 File size : 256 MiB Duration : 14 min 24 s Overall bit rate : 2 486 kb/s Encoded date : UTC 2021-11-26 11:33:09 Writing application : mkvmerge v50.0.0 ('Awakenings') 64-bit Writing library : libebml v1.4.0 + libmatroska v1.6.2 Cover : Yes Attachments : cover.png Video ID : 1 Format : AVC Format/Info : Advanced Video Codec Format profile : High@L3.1 Format settings : CABAC / 4 Ref Frames Format settings, CABAC : Yes Format settings, Reference fra : 4 frames Codec ID : V_MPEG4/ISO/AVC Duration : 14 min 24 s Bit rate : 2 350 kb/s Width : 1 280 pixels Height : 720 pixels Display aspect ratio : 16:9 Frame rate mode : Constant Frame rate : 29.970 (29970/1000) FPS Original frame rate : 29.970 (30000/1001) FPS Color space : YUV Chroma subsampling : 4:2:0 Bit depth : 8 bits Scan type : Progressive Bits/(Pixel*Frame) : 0.085 Stream size : 242 MiB (95%) Default : Yes Forced : No Color range : Limited Color primaries : BT.709 Transfer characteristics : BT.709 Matrix coefficients : BT.709 Audio ID : 2 Format : AAC LC Format/Info : Advanced Audio Codec Low Complexity Codec ID : A_AAC-2 Duration : 14 min 24 s Bit rate : 125 kb/s Channel(s) : 2 channels Channel layout : L R Sampling rate : 48.0 kHz Frame rate : 46.875 FPS (1024 SPF) Compression mode : Lossy Stream size : 12.9 MiB (5%) Language : Japanese Default : Yes Forced : No ```

File list