[UNARCHIVED] [NIJISANJI EN - Millie Parfait] 【ADULT STREAM】Adult Assesment~ [2021-11-27] - ZAUKSOErdVA

Category:
Date:
2021-11-27 04:04 UTC
Submitter:
Seeders:
4
Information:
Leechers:
0
File size:
1.7 GiB
Completed:
48
Info hash:
29fd675aba92c85a6dfe9be0036410b23f6a289b
![Thumbnail](https://pbs.twimg.com/media/FFJ4Xi3XIAspf04?format=jpg&name=large) Format : MPEG-4 >Format profile : Base Media Codec ID : isom (isom/iso2/avc1/mp41) File size : 1.69 GiB Duration : 1 h 33 min Overall bit rate : 2 567 kb/s Movie name : 【ADULT STREAM】Adult Assesment~ ✨ ☆⭒NIJISANJI EN ✧ Millie Parfait ☆⭒ Performer : Millie Parfait【NIJISANJI EN】 Recorded date : 20211127 Writing application : Lavf59.4.102 Cover : Yes Comment : https://www.youtube.com/watch?v=ZAUKSOErdVA Video >ID : 3 Format : AVC Format/Info : Advanced Video Codec Format profile : Main@L4.2 Format settings : CABAC / 1 Ref Frames Format settings, CABAC : Yes Format settings, Reference : 1 frame Format settings, GOP : M=1, N=60 Codec ID : avc1 Codec ID/Info : Advanced Video Coding Duration : 1 h 33 min Bit rate : 2 428 kb/s Width : 1 920 pixels Height : 1 080 pixels Display aspect ratio : 16:9 Frame rate mode : Variable Frame rate : 60.000 FPS Minimum frame rate : 58.824 FPS Maximum frame rate : 62.500 FPS Color space : YUV Chroma subsampling : 4:2:0 Bit depth : 8 bits Scan type : Progressive Bits/(Pixel*Frame) : 0.020 Stream size : 1.59 GiB (95%) Title : ISO Media file produced by Google Inc. Created on: 11/26/2021. Color range : Limited Color primaries : BT.709 Transfer characteristics : BT.709 Matrix coefficients : BT.709 Codec configuration box : avcC Audio >ID : 1 Format : AAC LC Format/Info : Advanced Audio Codec Low Complexity Codec ID : mp4a-40-2 Duration : 1 h 33 min Bit rate mode : Constant Bit rate : 128 kb/s Channel(s) : 2 channels Channel layout : L R Sampling rate : 44.1 kHz Frame rate : 43.066 FPS (1024 SPF) Compression mode : Lossy Stream size : 86.0 MiB (5%) Title : ISO Media file produced by Google Inc. Created on: 11/26/2021. Default : Yes Alternate group : 1

File list

  • [2021-11-27] [UNARCHIVED] [NIJISANJI EN - Millie Parfait] 【ADULT STREAM】Adult Assesment~ - ZAUKSOErdVA
    • [UNARCHIVED] [NIJISANJI EN - Millie Parfait] 【ADULT STREAM】Adult Assesment~ [2021-11-27] - ZAUKSOErdVA.description (2.9 KiB)
    • [UNARCHIVED] [NIJISANJI EN - Millie Parfait] 【ADULT STREAM】Adult Assesment~ [2021-11-27] - ZAUKSOErdVA.live_chat.json (42.4 MiB)
    • [UNARCHIVED] [NIJISANJI EN - Millie Parfait] 【ADULT STREAM】Adult Assesment~ [2021-11-27] - ZAUKSOErdVA.mp4 (1.7 GiB)
    • [UNARCHIVED] [NIJISANJI EN - Millie Parfait] 【ADULT STREAM】Adult Assesment~ [2021-11-27] - ZAUKSOErdVA.webp (13.7 KiB)