Kuma.Kuma.Kuma.Bear.S01.1080p.BluRay.10-Bit.Dual-Audio.FLAC5.1.x265-YURASUKA

Category:
Date:
2021-11-27 04:03 UTC
Submitter:
Seeders:
7
Information:
Leechers:
1
File size:
10.9 GiB
Completed:
62
Info hash:
b3bcb9d0c9901ba69065e2d436c46bdf500badee
Kuma Kuma Kuma Bear Season 1 (2020) Note that only the English track is 5.1, the Japanese track is stereo. A/V Source: GlukNia BD Remux (JP) Subtitles + English Audio: [NH](https://nyaa.si/view/1446329) (GJM) Encode Comparison: [Part 1](https://slow.pics/c/6T1jUxVH) & [Part 2](https://slow.pics/c/JVT55krS) ``` Complete name : Kuma.Kuma.Kuma.Bear.S01E02.1080p.BluRay.10-Bit.Dual-Audio.FLAC5.1.x265-YURASUKA.mkv Format : Matroska Format version : Version 4 File size : 1 019 MiB Duration : 23 min 41 s Overall bit rate mode : Variable Overall bit rate : 6 015 kb/s Movie name : Kuma Kuma Kuma Bear - S01E02 - YURASUKA Encoded date : UTC 2021-11-26 23:37:25 Writing application : mkvmerge v62.0.0 ('Apollo') 64-bit Writing library : libebml v1.4.2 + libmatroska v1.6.3 Attachments : AMEMUCHILIGHTNOVELPOP-O.ttf / AVER.ttf / CHIAROSTD-B.otf / CORPID-BOLD.otf / CRAYONARA-REGULAR.ttf / DISNEYSIMPLE.ttf / FUTUREN0TFOUND.ttf / GANDHISANS-BOLD.otf / GANDHISANS-BOLDITALIC.otf / MUSEOSANS-500.otf / NISSANOPTI.otf / SEURATPRO-UB.otf / SHINMARUGOBOLDWEB.ttf / WHEATONCAPITALS-REGULAR.ttf / DISNEYSIMPLE.TTF / FUTUREN0TFOUND.TTF / GANDHISANS-BOLD.OTF / GANDHISANS-BOLDITALIC.OTF / MUSEOSANS-500.OTF / NISSANOPTI.OTF / SEURATPRO-UB.OTF / SHINMARUGOBOLDWEB.TTF / WHEATONCAPITALS-REGULAR.TTF / AMEMUCHILIGHTNOVELPOP-O.TTF / AVER.TTF / CHIAROSTD-B.OTF / CORPID-BOLD.OTF / CRAYONARA-REGULAR.TTF Video ID : 1 Format : HEVC Format/Info : High Efficiency Video Coding Format profile : Main 10@L5@Main Codec ID : V_MPEGH/ISO/HEVC Duration : 23 min 41 s Bit rate : 3 743 kb/s Width : 1 920 pixels Height : 1 080 pixels Display aspect ratio : 16:9 Frame rate mode : Constant Frame rate : 23.976 (24000/1001) FPS Color space : YUV Chroma subsampling : 4:2:0 Bit depth : 10 bits Bits/(Pixel*Frame) : 0.075 Stream size : 634 MiB (62%) Title : YURASUKA 1080p x265 Writing library : x265 3.5:[Linux][GCC 10.2.0][64 bit] 10bit Encoding settings : cpuid=1111039 / frame-threads=4 / numa-pools=24 / wpp / no-pmode / no-pme / no-psnr / no-ssim / log-level=2 / input-csp=1 / input-res=1920x1080 / interlace=0 / total-frames=0 / level-idc=0 / high-tier=1 / uhd-bd=0 / ref=6 / no-allow-non-conformance / no-repeat-headers / annexb / no-aud / no-hrd / info / hash=0 / no-temporal-layers / open-gop / min-keyint=1 / keyint=360 / gop-lookahead=0 / bframes=16 / b-adapt=2 / b-pyramid / bframe-bias=0 / rc-lookahead=72 / lookahead-slices=4 / scenecut=40 / hist-scenecut=0 / radl=0 / no-splice / no-intra-refresh / ctu=32 / min-cu-size=8 / rect / amp / max-tu-size=32 / tu-inter-depth=4 / tu-intra-depth=4 / limit-tu=0 / rdoq-level=2 / dynamic-rd=0.00 / no-ssim-rd / signhide / tskip / nr-intra=0 / nr-inter=0 / no-constrained-intra / strong-intra-smoothing / max-merge=3 / limit-refs=3 / limit-modes / me=3 / subme=4 / merange=57 / temporal-mvp / no-frame-dup / no-hme / weightp / weightb / no-analyze-src-pics / deblock=0:0 / no-sao / no-sao-non-deblock / rd=4 / selective-sao=0 / no-early-skip / rskip / no-fast-intra / no-tskip-fast / no-cu-lossless / b-intra / no-splitrd-skip / rdpenalty=0 / psy-rd=2.00 / psy-rdoq=2.00 / no-rd-refine / no-lossless / cbqpoffs=0 / crqpoffs=0 / rc=crf / crf=16.0 / qcomp=0.72 / qpstep=4 / stats-write=0 / stats-read=0 / ipratio=1.40 / pbratio=1.30 / aq-mode=3 / aq-strength=1.00 / cutree / zone-count=0 / no-strict-cbr / qg-size=32 / no-rc-grain / qpmax=69 / qpmin=0 / no-const-vbv / sar=0 / overscan=0 / videoformat=5 / range=0 / colorprim=1 / transfer=1 / colormatrix=1 / chromaloc=0 / display-window=0 / cll=0,0 / min-luma=0 / max-luma=1023 / log2-max-poc-lsb=8 / vui-timing-info / vui-hrd-info / slices=1 / no-opt-qp-pps / no-opt-ref-list-length-pps / no-multi-pass-opt-rps / scenecut-bias=0.05 / hist-threshold=0.03 / no-opt-cu-delta-qp / no-aq-motion / no-hdr10 / no-hdr10-opt / no-dhdr10-opt / no-idr-recovery-sei / analysis-reuse-level=0 / analysis-save-reuse-level=0 / analysis-load-reuse-level=0 / scale-factor=0 / refine-intra=0 / refine-inter=0 / refine-mv=1 / refine-ctu-distortion=0 / no-limit-sao / ctu-info=0 / no-lowpass-dct / refine-analysis-type=0 / copy-pic=1 / max-ausize-factor=1.0 / no-dynamic-refine / no-single-sei / no-hevc-aq / no-svt / no-field / qp-adaptation-range=1.00 / scenecut-aware-qp=0conformance-window-offsets / right=0 / bottom=0 / decoder-max-rate=0 / no-vbv-live-multi-pass Language : Japanese Default : Yes Forced : No Color range : Limited Color primaries : BT.709 Transfer characteristics : BT.709 Matrix coefficients : BT.709 Audio #1 ID : 2 Format : FLAC Format/Info : Free Lossless Audio Codec Codec ID : A_FLAC Duration : 23 min 40 s Bit rate mode : Variable Bit rate : 1 391 kb/s Channel(s) : 6 channels Channel layout : L R C LFE Ls Rs Sampling rate : 48.0 kHz Frame rate : 10.417 FPS (4608 SPF) Bit depth : 16 bits Compression mode : Lossless Delay relative to video : 100 ms Stream size : 236 MiB (23%) Title : English FLAC 5.1 Writing library : Lavf58.76.100 Language : English Default : Yes Forced : No Audio #2 ID : 3 Format : FLAC Format/Info : Free Lossless Audio Codec Codec ID : A_FLAC Duration : 23 min 41 s Bit rate mode : Variable Bit rate : 719 kb/s Channel(s) : 2 channels Channel layout : L R Sampling rate : 48.0 kHz Frame rate : 10.417 FPS (4608 SPF) Bit depth : 16 bits Compression mode : Lossless Stream size : 122 MiB (12%) Title : Japanese FLAC 2.0 Writing library : Lavf58.76.100 Language : Japanese Default : No Forced : No Text #1 ID : 4 Format : ASS Codec ID : S_TEXT/ASS Codec ID/Info : Advanced Sub Station Alpha Duration : 22 min 48 s Bit rate : 7 460 b/s Count of elements : 8631 Compression mode : Lossless Stream size : 1.22 MiB (0%) Title : Signs & Songs Language : English Default : Yes Forced : Yes Text #2 ID : 5 Format : ASS Codec ID : S_TEXT/ASS Codec ID/Info : Advanced Sub Station Alpha Duration : 23 min 35 s Bit rate : 7 352 b/s Count of elements : 9039 Compression mode : Lossless Stream size : 1.24 MiB (0%) Title : Full Subtitles [GJM] Language : English Default : No Forced : No Menu 00:00:00.100 : en:Intro 00:02:14.067 : en:OP 00:03:44.074 : en:Main Episode 00:22:36.580 : en:ED 00:23:34.972 : en:Preview ``` Dead end for a sucker that’s a sucker like me. 私のような吸盤の行き止まりです。

File list

  • Kuma.Kuma.Kuma.Bear.S01.1080p.BluRay.10-Bit.Dual-Audio.FLAC5.1.x265-YURASUKA
    • Kuma.Kuma.Kuma.Bear.S01E01.1080p.BluRay.10-Bit.Dual-Audio.FLAC5.1.x265-YURASUKA.mkv (1018.6 MiB)
    • Kuma.Kuma.Kuma.Bear.S01E02.1080p.BluRay.10-Bit.Dual-Audio.FLAC5.1.x265-YURASUKA.mkv (1019.0 MiB)
    • Kuma.Kuma.Kuma.Bear.S01E03.1080p.BluRay.10-Bit.Dual-Audio.FLAC5.1.x265-YURASUKA.mkv (980.2 MiB)
    • Kuma.Kuma.Kuma.Bear.S01E04.1080p.BluRay.10-Bit.Dual-Audio.FLAC5.1.x265-YURASUKA.mkv (908.6 MiB)
    • Kuma.Kuma.Kuma.Bear.S01E05.1080p.BluRay.10-Bit.Dual-Audio.FLAC5.1.x265-YURASUKA.mkv (865.9 MiB)
    • Kuma.Kuma.Kuma.Bear.S01E06.1080p.BluRay.10-Bit.Dual-Audio.FLAC5.1.x265-YURASUKA.mkv (905.1 MiB)
    • Kuma.Kuma.Kuma.Bear.S01E07.1080p.BluRay.10-Bit.Dual-Audio.FLAC5.1.x265-YURASUKA.mkv (980.4 MiB)
    • Kuma.Kuma.Kuma.Bear.S01E08.1080p.BluRay.10-Bit.Dual-Audio.FLAC5.1.x265-YURASUKA.mkv (903.9 MiB)
    • Kuma.Kuma.Kuma.Bear.S01E09.1080p.BluRay.10-Bit.Dual-Audio.FLAC5.1.x265-YURASUKA.mkv (881.8 MiB)
    • Kuma.Kuma.Kuma.Bear.S01E10.1080p.BluRay.10-Bit.Dual-Audio.FLAC5.1.x265-YURASUKA.mkv (953.0 MiB)
    • Kuma.Kuma.Kuma.Bear.S01E11.1080p.BluRay.10-Bit.Dual-Audio.FLAC5.1.x265-YURASUKA.mkv (998.8 MiB)
    • Kuma.Kuma.Kuma.Bear.S01E12.1080p.BluRay.10-Bit.Dual-Audio.FLAC5.1.x265-YURASUKA.mkv (754.4 MiB)
xOmnium's favorite anime
Excellent work. ^^