[MagicStar] Ultraman Trigger EP18 [WEBDL] [1080p] [AMZN]

Category:
Date:
2021-11-27 02:10 UTC
Submitter:
Seeders:
1
Information:
Leechers:
0
File size:
1.1 GiB
Completed:
126
Info hash:
1765038a02a0fbed0906a3788c3d7265d0ed79b2
HD 1080p from Prime Video. ![alt text](https://i.ibb.co/h8Rjt1L/4f76a314-93e9-4c36-8780-d672abd0a3e9.jpg) ![alt text](https://i.ibb.co/SQ8nWVc/Ultraman-Trigger-EP18-1080p-AMZN-WEB-DL-DDP2-0-H-264-Magic-Star-mkv.jpg) ``` General Unique ID : 208614703642849640771163896845218037541 (0x9CF1BAFF546CB32490411B202A333F25) Complete name : Ultraman.Trigger.EP18.1080p.AMZN.WEB-DL.DDP2.0.H.264-MagicStar.mkv Format : Matroska Format version : Version 4 File size : 1.06 GiB Duration : 24 min 36 s Overall bit rate : 6 173 kb/s Encoded date : UTC 2021-11-26 09:48:35 Writing application : mkvmerge v50.0.0 ('Awakenings') 64-bit Writing library : libebml v1.4.0 + libmatroska v1.6.2 Cover : Yes Attachments : cover.png Video ID : 1 Format : AVC Format/Info : Advanced Video Codec Format profile : High@L4 Format settings : CABAC / 4 Ref Frames Format settings, CABAC : Yes Format settings, Reference fra : 4 frames Codec ID : V_MPEG4/ISO/AVC Duration : 24 min 36 s Bit rate : 5 938 kb/s Width : 1 920 pixels Height : 1 080 pixels Display aspect ratio : 16:9 Frame rate mode : Constant Frame rate : 23.976 (24000/1001) FPS Color space : YUV Chroma subsampling : 4:2:0 Bit depth : 8 bits Scan type : Progressive Bits/(Pixel*Frame) : 0.119 Stream size : 1.02 GiB (96%) Default : Yes Forced : No Color range : Limited Color primaries : BT.709 Transfer characteristics : BT.709 Matrix coefficients : BT.709 Audio ID : 2 Format : E-AC-3 Format/Info : Enhanced AC-3 Commercial name : Dolby Digital Plus Codec ID : A_EAC3 Duration : 24 min 36 s Bit rate mode : Constant Bit rate : 224 kb/s Channel(s) : 2 channels Channel layout : L R Sampling rate : 48.0 kHz Frame rate : 31.250 FPS (1536 SPF) Compression mode : Lossy Stream size : 39.4 MiB (4%) Language : Japanese Service kind : Complete Main Default : Yes Forced : No ```

File list