[Hololive EN - Amelia Watson] 【Karaoke】Thanksgiving DUETS ~ {UNARCHIVED} Showing #1 [2021-11-26] - njiykH8mKzU

Category:
Date:
2021-11-26 00:35 UTC
Submitter:
Seeders:
16
Information:
Leechers:
2
File size:
1.9 GiB
Completed:
77
Info hash:
8abbe6ded1bfc89ef3ddf2513abeda8f3767db69
![Thumbnail](https://i.ibb.co/VwQwz8J/2021-11-26-Hololive-EN-Amelia-Watson-Karaoke-Thanksgiving-DUETS-UNARCHIVED-Showing-1-njiyk-H8m-Kz-U.webp) Format : MPEG-4 >Format profile : Base Media Codec ID : isom (isom/iso2/avc1/mp41) File size : 1.81 GiB Duration : 1 h 27 min Overall bit rate mode : Variable Overall bit rate : 2 973 kb/s Movie name : 【Karaoke】Thanksgiving DUETS ~ {UNARCHIVED} Showing #1 2021-11-26 03:00 Performer : Watson Amelia Ch. hololive-EN Description : happy thanksgiving! happy fall~ this will be rebroadcast at 8pm PST / 11pm EST Recorded date : 20211125 Writing application : Lavf59.4.102 Cover : Yes Comment : https://www.youtube.com/watch?v=njiykH8mKzU LongDescription : happy thanksgiving! happy fall~ this will be rebroadcast at 8pm PST / 11pm EST Video >ID : 1 Format : AVC Format/Info : Advanced Video Codec Format profile : High@L4.2 Format settings : CABAC / 1 Ref Frames Format settings, CABAC : Yes Format settings, Reference : 1 frame Codec ID : avc1 Codec ID/Info : Advanced Video Coding Duration : 1 h 27 min Bit rate : 2 836 kb/s Width : 1 920 pixels Height : 1 080 pixels Display aspect ratio : 16:9 Frame rate mode : Constant Frame rate : 60.000 FPS Color space : YUV Chroma subsampling : 4:2:0 Bit depth : 8 bits Scan type : Progressive Bits/(Pixel*Frame) : 0.023 Stream size : 1.72 GiB (95%) Color range : Limited Color primaries : BT.709 Transfer characteristics : BT.709 Matrix coefficients : BT.709 Codec configuration box : avcC Audio >ID : 2 Format : AAC LC Format/Info : Advanced Audio Codec Low Complexity Codec ID : mp4a-40-2 Duration : 1 h 27 min Source duration : 1 h 27 min Bit rate mode : Variable Bit rate : 126 kb/s Maximum bit rate : 128 kb/s / 128 kb/s Channel(s) : 2 channels Channel layout : L R Sampling rate : 44.1 kHz Frame rate : 43.066 FPS (1024 SPF) Compression mode : Lossy Stream size : 78.2 MiB (4%) Source stream size : 78.2 MiB (4%) Default : Yes Alternate group : 1 mdhd_Duration : 5225011

File list

  • [2021-11-26] [Hololive EN - Amelia Watson] 【Karaoke】Thanksgiving DUETS ~ {UNARCHIVED} Showing #1 - njiykH8mKzU
    • [2021-11-26] [Hololive EN - Amelia Watson] 【Karaoke】Thanksgiving DUETS ~ {UNARCHIVED} Showing #1 - njiykH8mKzU.description (78 Bytes)
    • [2021-11-26] [Hololive EN - Amelia Watson] 【Karaoke】Thanksgiving DUETS ~ {UNARCHIVED} Showing #1 - njiykH8mKzU.json (104.8 MiB)
    • [2021-11-26] [Hololive EN - Amelia Watson] 【Karaoke】Thanksgiving DUETS ~ {UNARCHIVED} Showing #1 - njiykH8mKzU.mp4 (1.8 GiB)
    • [2021-11-26] [Hololive EN - Amelia Watson] 【Karaoke】Thanksgiving DUETS ~ {UNARCHIVED} Showing #1 - njiykH8mKzU.webp (41.2 KiB)