[Projekt Melody x Kson ONAIR] Chaturbate Collab - 11-12-2021

Category:
Date:
2021-11-16 07:00 UTC
Submitter:
Seeders:
9
Information:
No information.
Leechers:
0
File size:
10.3 GiB
Completed:
536
Info hash:
1dc204674c690e574600bec0dd25a7a10473158b
Rip from Onlyfans that Melody of VSHOJO put up. Uploading for those who do not have a credit card to make an account on Onlyfans. Video: MPEG4 Video (H264) 1920x1080 59.94fps 7090kbps [V: h264 high L4.2, yuv420p, 1920x1080, 7090 kb/s] Audio: AAC 48000Hz stereo 125kbps [A: SoundHandler (aac lc, 48000 Hz, stereo, 125 kb/s)] Media Length: 03:23:03 General Complete name : E:\Download\[Projekt Melody x Kson ONAIR] Chaturbate Collab - 11-12-2021.mp4 Format : MPEG-4 Format profile : Base Media Codec ID : isom (isom/iso2/avc1/mp41) File size : 10.3 GiB Duration : 3 h 23 min Overall bit rate : 7 230 kb/s Writing application : Lavf58.29.100 Video ID : 1 Format : AVC Format/Info : Advanced Video Codec Format profile : High@L4.2 Format settings : CABAC / 1 Ref Frames Format settings, CABAC : Yes Format settings, Reference fra : 1 frame Codec ID : avc1 Codec ID/Info : Advanced Video Coding Duration : 3 h 23 min Bit rate : 7 090 kb/s Width : 1 920 pixels Height : 1 080 pixels Display aspect ratio : 16:9 Frame rate mode : Variable Frame rate : 59.940 (60000/1001) FPS Minimum frame rate : 55.556 FPS Maximum frame rate : 62.500 FPS Color space : YUV Chroma subsampling : 4:2:0 Bit depth : 8 bits Scan type : Progressive Bits/(Pixel*Frame) : 0.057 Stream size : 10.1 GiB (98%) Codec configuration box : avcC Audio ID : 2 Format : AAC LC Format/Info : Advanced Audio Codec Low Complexity Codec ID : mp4a-40-2 Duration : 3 h 23 min Bit rate mode : Constant Bit rate : 125 kb/s Channel(s) : 2 channels Channel layout : L R Sampling rate : 48.0 kHz Frame rate : 46.875 FPS (1024 SPF) Compression mode : Lossy Stream size : 182 MiB (2%) Default : Yes Alternate group : 1

File list

  • [Projekt Melody x Kson ONAIR] Chaturbate Collab - 11-12-2021.mp4 (10.3 GiB)