[neoHEVC] Combatants Will Be Dispatched! [Season 1] [BD 1080p x265 HEVC AAC] [Dual Audio] Sentouin, Hakenshimasu!

Category:
Date:
2021-11-06 13:04 UTC
Submitter:
Seeders:
26
Information:
Leechers:
1
File size:
2.9 GiB
Completed:
2095
Info hash:
1448a458bbabb2af3ca7549ae1ce6b1c8ad2f5ba
![](https://i.imgur.com/RBlGp48.png) *Join **[Discord](https://discord.gg/47Q7FdB54e)** for Current Projects and Seed-Request in case of no available seeds.* **Combatants Will Be Dispatched! / Sentouin, Hakenshimasu! [Season 1]** *with `Dual Audio (Jpn/Eng)` and `Eng Subs` in `BD 1080p HEVC`* Encode of [TTGA] (BDREMUX x264 AVC FLAC) to (x265 HEVC AAC). *Work done on subtitles: Small timing fixes and adjustments on signs.* ![](https://i.imgur.com/4iegWLL.png) **[Trailer](https://www.youtube.com/watch?v=-uJdqz-fBl8)** ![](https://i.imgur.com/3UxGuWB.png) ![](https://i.imgur.com/ZCtSawZ.png) **[MyAnimeList](https://myanimelist.net/anime/41456/Sentouin_Hakenshimasu)** --- **Patch** Web audio of episode 5 had problems at the very end. You can apply this patch here which replaces the English audio track with the USBD version. Put the episode 5 file with its original name into the patch folder (extracted) and run the patch file corresponding to your operating system. **[Episode 5 Audio Patch](https://drive.google.com/file/d/1Ad15YzmK5rIDT2gbzVhcHFTZ8ipr5v9K/view?usp=share_link)** --- **Synopsis** As a chief operative of the villainous Kisaragi Corporation, Sentouin Roku-gou receives orders to help the organization conquer the entire known universe. Tasked with infiltrating the kingdom of Grace—a mission that could change the fate of the world—Roku-gou mistakenly believes that his skills as a combatant are superb, fuelling his arrogant attitude. To ensure the success of the mission, Alice Kisaragi, an exceptional android with a youthful appearance named after the company itself, is assigned to be Roku-gou's travel companion. Upon their arrival at the outskirts of the kingdom, Alice and Roku-gou encounter Snow, the commander of the country's royal guard. Snow leads the pair to a broken legendary artifact, and Roku-gou seizes the opportunity for a long-awaited promotion at his company and changes the recitation for the sacred ritual to an embarrassing phrase. As punishment, the princess of the kingdom forces Roku-gou to become an honorary knight, fulfilling part of his mission. Having infiltrated the kingdom's inner circle, Roku-gou must now help his new employer fight against the Demon Lord's Army, all while perpetuating evil deeds as a combatant of the Kisaragi Corporation. ![](https://i.imgur.com/mvTU1T3.png) --- **Language Options** I included three simple scripts that you can apply to these files to do the following (Windows only): 1. Change [Default Tracks]: Switches default tracks to *A:Japanese S:Dialog* 2. Make [Single Audio] Japanese: Throws out *English audio* and *Signs&Songs subtitles* tracks 3. Make [Single Audio] English: Throws out *Japanese audio* and *Dialogue subtitles* tracks To apply these put all the video files into the *Language Options* folder and run the .bat file. --- **Comparison** *Open links, toggle with mouseclick and check title.* [![](https://i.imgur.com/HFf0Btz.png)](https://slow.pics/c/yEuC6Lua) [![](https://i.imgur.com/4t67qS6.png)](https://slow.pics/c/VPuyK5C7) [![](https://i.imgur.com/SyiinNb.png)](https://slow.pics/c/nwhEqds2) --- **Source** 🗃️ Video Audio and Subs: **[[TTGA]](https://nyaa.si/view/1452004)** 💬 *Subtitles Info: [IDK] [EMBER] - Format `ASS`* --- **Media Info** 🆔 [Full Mediainfo incl. Encoder Settings](https://pastebin.com/v0SpcDU5) ``` General Unique ID : 249071668197305659932098989819225091468 (0xBB61755A397BC21115C2C4B12A3AAD8C) Complete name : Combatants Will Be Dispatched! - S01E01.mkv Format : Matroska Format version : Version 4 File size : 286 MiB Duration : 24 min 31 s Overall bit rate : 1 631 kb/s Movie name : Combatants Will Be Dispatched! - S01E01 Encoded date : UTC 2021-11-06 12:12:37 Writing application : mkvmerge v57.0.0 ('Till The End') 64-bit Writing library : libebml v1.4.2 + libmatroska v1.6.4 / Lavf58.76.100 Attachments : Han Yi.otf / I Did This!.ttf / Itim-Regular.ttf / nyala.TTF / Beach Normal.ttf / BRUSH-HYOUKA.TTF / GandhiSans-Bold.otf Video ID : 1 Format : HEVC Format/Info : High Efficiency Video Coding Format profile : Main 10@L4.1@High Codec ID : V_MPEGH/ISO/HEVC Duration : 24 min 31 s Bit rate : 1 248 kb/s Width : 1 920 pixels Height : 1 080 pixels Display aspect ratio : 16:9 Frame rate mode : Constant Frame rate : 23.976 (24000/1001) FPS Color space : YUV Chroma subsampling : 4:2:0 Bit depth : 10 bits Bits/(Pixel*Frame) : 0.025 Stream size : 219 MiB (76%) Writing library : x265 3.5+1-f0c1022b6:[Windows][GCC 9.2.0][64 bit] 10bit Encoding settings : <Check Link Above> Default : Yes Forced : No Color range : Limited Color primaries : BT.709 Transfer characteristics : BT.709 Matrix coefficients : BT.709 Audio #1 ID : 2 Format : AAC LC Format/Info : Advanced Audio Codec Low Complexity Codec ID : A_AAC-2 Duration : 24 min 30 s Bit rate : 161 kb/s Channel(s) : 2 channels Channel layout : L R Sampling rate : 48.0 kHz Frame rate : 46.875 FPS (1024 SPF) Compression mode : Lossy Stream size : 28.2 MiB (10%) Title : Stereo - ENG (AAC) Language : English Default : Yes Forced : No Audio #2 ID : 3 Format : AAC LC Format/Info : Advanced Audio Codec Low Complexity Codec ID : A_AAC-2 Duration : 24 min 31 s Bit rate : 211 kb/s Channel(s) : 2 channels Channel layout : L R Sampling rate : 48.0 kHz Frame rate : 46.875 FPS (1024 SPF) Compression mode : Lossy Stream size : 37.1 MiB (13%) Title : Stereo - JPN (AAC) Language : Japanese Default : No Forced : No Text #1 ID : 4 Format : ASS Codec ID : S_TEXT/ASS Codec ID/Info : Advanced Sub Station Alpha Duration : 20 min 36 s Bit rate : 11 b/s Count of elements : 20 Compression mode : Lossless Stream size : 1.79 KiB (0%) Title : Signs & Songs - ENG (ASS) Language : English Default : Yes Forced : No Text #2 ID : 5 Format : ASS Codec ID : S_TEXT/ASS Codec ID/Info : Advanced Sub Station Alpha Duration : 24 min 25 s Bit rate : 159 b/s Count of elements : 473 Compression mode : Lossless Stream size : 28.5 KiB (0%) Title : Dialogue - ENG (ASS) Language : English Default : No Forced : No Menu 00:00:00.000 : :Intro 00:07:03.965 : :Part A 00:13:46.034 : :Part B 00:22:11.622 : :OP+Scene 00:23:42.046 : :PV ```

File list

  • [neoHEVC] Combatants Will Be Dispatched! [Season 1] [BD 1080p x265 HEVC AAC] [Dual Audio]
    • Language Options
      • 1. Change [Default Tracks].bat (162 Bytes)
      • 2. Make [Single Audio] Japanese - Copy.bat (166 Bytes)
      • 3. Make [Single Audio] English.bat (124 Bytes)
      • mkvmerge.exe (9.6 MiB)
      • readme.txt (513 Bytes)
    • Combatants Will Be Dispatched! - S01E01.mkv (286.1 MiB)
    • Combatants Will Be Dispatched! - S01E02.mkv (277.9 MiB)
    • Combatants Will Be Dispatched! - S01E03.mkv (252.4 MiB)
    • Combatants Will Be Dispatched! - S01E04.mkv (283.0 MiB)
    • Combatants Will Be Dispatched! - S01E05.mkv (226.9 MiB)
    • Combatants Will Be Dispatched! - S01E06.mkv (252.9 MiB)
    • Combatants Will Be Dispatched! - S01E07.mkv (234.7 MiB)
    • Combatants Will Be Dispatched! - S01E08.mkv (221.8 MiB)
    • Combatants Will Be Dispatched! - S01E09.mkv (245.2 MiB)
    • Combatants Will Be Dispatched! - S01E10.mkv (246.2 MiB)
    • Combatants Will Be Dispatched! - S01E11.mkv (266.9 MiB)
    • Combatants Will Be Dispatched! - S01E12.mkv (217.3 MiB)
Thanks for the quality HEVC.
Thanks! Can you please do Log Horizon S3?
@neoHEVC the English Audio cuts off at the end of the Episode 5 at 23:50 could you upload a fixed audio and provide us with a ddl

neoborn (uploader)

User
**@abirkhan** All available english audio tracks for that episode seems to be bugged across the board. Checked [Cleo] aswell as [Ember] and they have the exact same problem. I'm not ripping these tracks from streaming sites myself. I only use what is already available here. So can't do anything about that at the moment :/

neoborn (uploader)

User
See patched episode 5 audio in description