[MagicStar] Janai Hou no Yoru ~Koi wa Totsuzen, Umarenai.~ EP04 [WEBDL] [720p] [PARAVI]

Category:
Date:
2021-11-04 23:10 UTC
Submitter:
Seeders:
4
Information:
Leechers:
2
File size:
196.8 MiB
Completed:
482
Info hash:
dd48c34a6d15e2b80b9a53e1353589715de1335e
HD 720p from Paravi. ![alt text](https://i.ibb.co/w629Pwy/95367276615.jpg) ![alt text](https://i.ibb.co/zZvxLsN/Janai-Hou-no-Yoru-Koi-wa-Totsuzen-Umarenai-EP04-720p-PARAVI-WEB-DL-AAC2-0-H-264-Magic-Star-mkv.jpg) ``` General Unique ID : 285889963670524788281730461202230601212 (0xD71467788E4385C9C211D7615E6CE5FC) Complete name : Janai.Hou.no.Yoru.Koi.wa.Totsuzen.Umarenai.EP04.720p.PARAVI.WEB-DL.AAC2.0.H.264-MagicStar.mkv Format : Matroska Format version : Version 4 File size : 197 MiB Duration : 11 min 23 s Overall bit rate : 2 417 kb/s Encoded date : UTC 2021-11-02 05:45:26 Writing application : mkvmerge v50.0.0 ('Awakenings') 64-bit Writing library : libebml v1.4.0 + libmatroska v1.6.2 Cover : Yes Attachments : cover.png Video ID : 1 Format : AVC Format/Info : Advanced Video Codec Format profile : High@L3.1 Format settings : CABAC / 4 Ref Frames Format settings, CABAC : Yes Format settings, Reference fra : 4 frames Codec ID : V_MPEG4/ISO/AVC Duration : 11 min 23 s Bit rate : 2 343 kb/s Width : 1 280 pixels Height : 720 pixels Display aspect ratio : 16:9 Frame rate mode : Constant Frame rate : 29.970 (29970/1000) FPS Original frame rate : 29.970 (30000/1001) FPS Color space : YUV Chroma subsampling : 4:2:0 Bit depth : 8 bits Scan type : Progressive Bits/(Pixel*Frame) : 0.085 Stream size : 191 MiB (97%) Default : Yes Forced : No Color range : Limited Color primaries : BT.709 Transfer characteristics : BT.709 Matrix coefficients : BT.709 Audio ID : 2 Format : AAC LC Format/Info : Advanced Audio Codec Low Complexity Codec ID : A_AAC-2 Duration : 11 min 23 s Bit rate : 61.4 kb/s Channel(s) : 2 channels Channel layout : L R Sampling rate : 48.0 kHz Frame rate : 46.875 FPS (1024 SPF) Compression mode : Lossy Stream size : 5.00 MiB (3%) Language : Japanese Default : Yes Forced : No ```

File list