[MagicStar] Janai Hou no Kanojo EP04 [WEBDL] [720p] [PARAVI] [JPN_SUB]

Category:
Date:
2021-11-04 23:09 UTC
Submitter:
Seeders:
8
Information:
Leechers:
0
File size:
647.1 MiB
Completed:
650
Info hash:
6da2f5d909aa0539a75d0c9bc92248582003afa9
HD 720p from Paravi. Japanese subtitles added. ![alt text](https://i.ibb.co/9t8P9B9/95367174199.jpg) ![alt text](https://i.ibb.co/FsB4X2Q/Janai-Hou-no-Kanojo-EP04-720p-PARAVI-WEB-DL-AAC2-0-H-264-Magic-Star-mkv.jpg) ``` General Unique ID : 308668682508201347514082208816483633177 (0xE8376D04BFAE026B40D58F3CCA918819) Complete name : Janai.Hou.no.Kanojo.EP04.720p.PARAVI.WEB-DL.AAC2.0.H.264-MagicStar.mkv Format : Matroska Format version : Version 4 File size : 647 MiB Duration : 38 min 11 s Overall bit rate : 2 368 kb/s Encoded date : UTC 2021-11-02 05:43:58 Writing application : mkvmerge v50.0.0 ('Awakenings') 64-bit Writing library : libebml v1.4.0 + libmatroska v1.6.2 Cover : Yes Attachments : cover.png Video ID : 1 Format : AVC Format/Info : Advanced Video Codec Format profile : High@L3.1 Format settings : CABAC / 4 Ref Frames Format settings, CABAC : Yes Format settings, Reference fra : 4 frames Codec ID : V_MPEG4/ISO/AVC Duration : 38 min 11 s Bit rate : 2 302 kb/s Width : 1 280 pixels Height : 720 pixels Display aspect ratio : 16:9 Frame rate mode : Constant Frame rate : 29.970 (29970/1000) FPS Original frame rate : 29.970 (30000/1001) FPS Color space : YUV Chroma subsampling : 4:2:0 Bit depth : 8 bits Scan type : Progressive Bits/(Pixel*Frame) : 0.083 Stream size : 629 MiB (97%) Default : Yes Forced : No Color range : Limited Color primaries : BT.709 Transfer characteristics : BT.709 Matrix coefficients : BT.709 Audio ID : 2 Format : AAC LC Format/Info : Advanced Audio Codec Low Complexity Codec ID : A_AAC-2 Duration : 38 min 11 s Bit rate : 61.4 kb/s Channel(s) : 2 channels Channel layout : L R Sampling rate : 48.0 kHz Frame rate : 46.875 FPS (1024 SPF) Compression mode : Lossy Stream size : 16.8 MiB (3%) Language : Japanese Default : Yes Forced : No ```

File list

Thank you so much. It will be pleasure from now on.