[MagicStar] Samurai Kaasan EP04 [WEBDL] [1080p] [HULU]

Category:
Date:
2021-11-04 18:07 UTC
Submitter:
Seeders:
3
Information:
Leechers:
0
File size:
680.6 MiB
Completed:
406
Info hash:
ee557d323cc33b6094f9624754b696aa8836ef4f
HD 1080p from HULU JAPAN. ![alt text](https://i.ibb.co/sqKyp11/ca5d38fe-fd34-4bc9-abe2-8e990cf48226.jpg) ![alt text](https://i.ibb.co/sF1jwVS/Samurai-Kaasan-EP04-1080p-HULU-WEB-DL-AAC2-0-H-264-Magic-Star-mkv.jpg) ``` General Unique ID : 274776475101631495264748431261102225528 (0xCEB8062E1D214C2E9F15BDF6764BB878) Complete name : Samurai.Kaasan.EP04.1080p.HULU.WEB-DL.AAC2.0.H.264-MagicStar.mkv Format : Matroska Format version : Version 4 File size : 681 MiB Duration : 23 min 25 s Overall bit rate : 4 063 kb/s Encoded date : UTC 2021-11-02 05:42:01 Writing application : mkvmerge v50.0.0 ('Awakenings') 64-bit Writing library : libebml v1.4.0 + libmatroska v1.6.2 Cover : Yes Attachments : cover.png Video ID : 1 Format : AVC Format/Info : Advanced Video Codec Format profile : High@L4 Format settings : CABAC / 4 Ref Frames Format settings, CABAC : Yes Format settings, Reference fra : 4 frames Codec ID : V_MPEG4/ISO/AVC Duration : 23 min 25 s Bit rate : 3 935 kb/s Width : 1 920 pixels Height : 1 080 pixels Display aspect ratio : 16:9 Frame rate mode : Constant Frame rate : 29.970 (29970/1000) FPS Original frame rate : 29.970 (30000/1001) FPS Color space : YUV Chroma subsampling : 4:2:0 Bit depth : 8 bits Scan type : Progressive Bits/(Pixel*Frame) : 0.063 Stream size : 659 MiB (97%) Default : Yes Forced : No Color range : Limited Color primaries : BT.709 Transfer characteristics : BT.709 Matrix coefficients : BT.709 Audio ID : 2 Format : AAC LC Format/Info : Advanced Audio Codec Low Complexity Codec ID : A_AAC-2 Duration : 23 min 25 s Bit rate : 125 kb/s Channel(s) : 2 channels Channel layout : L R Sampling rate : 48.0 kHz Frame rate : 46.875 FPS (1024 SPF) Compression mode : Lossy Stream size : 21.0 MiB (3%) Language : Japanese Default : Yes Forced : No ```

File list