[MagicStar] Ultraman Trigger EP14 [WEBDL] [1080p] [HULU] [JPN_SUB]

Category:
Date:
2021-11-04 17:56 UTC
Submitter:
Seeders:
3
Information:
Leechers:
0
File size:
708.8 MiB
Completed:
84
Info hash:
fd6cd34f255961b31ccf96956c6167e00bccb42c
HD 1080p from HULU JAPAN. ![alt text](https://i.ibb.co/h8Rjt1L/4f76a314-93e9-4c36-8780-d672abd0a3e9.jpg) ![alt text](https://i.ibb.co/6mrn1qL/Ultraman-Trigger-EP14-1080p-HULU-WEB-DL-AAC2-0-H-264-Magic-Star-mkv.jpg) ``` General Unique ID : 305528787600292210877200007524033368938 (0xE5DAB43F51B198EE3AF2FF2BC33E136A) Complete name : Ultraman.Trigger.EP14.1080p.HULU.WEB-DL.AAC2.0.H.264-MagicStar.mkv Format : Matroska Format version : Version 4 File size : 709 MiB Duration : 24 min 37 s Overall bit rate : 4 025 kb/s Encoded date : UTC 2021-11-02 05:40:42 Writing application : mkvmerge v50.0.0 ('Awakenings') 64-bit Writing library : libebml v1.4.0 + libmatroska v1.6.2 Cover : Yes Attachments : cover.png Video ID : 1 Format : AVC Format/Info : Advanced Video Codec Format profile : High@L4 Format settings : CABAC / 4 Ref Frames Format settings, CABAC : Yes Format settings, Reference fra : 4 frames Codec ID : V_MPEG4/ISO/AVC Duration : 24 min 37 s Bit rate : 3 897 kb/s Width : 1 920 pixels Height : 1 080 pixels Display aspect ratio : 16:9 Frame rate mode : Constant Frame rate : 23.976 (24000/1001) FPS Color space : YUV Chroma subsampling : 4:2:0 Bit depth : 8 bits Scan type : Progressive Bits/(Pixel*Frame) : 0.078 Stream size : 686 MiB (97%) Default : Yes Forced : No Color range : Limited Color primaries : BT.709 Transfer characteristics : BT.709 Matrix coefficients : BT.709 Audio ID : 2 Format : AAC LC Format/Info : Advanced Audio Codec Low Complexity Codec ID : A_AAC-2 Duration : 24 min 37 s Bit rate : 125 kb/s Channel(s) : 2 channels Channel layout : L R Sampling rate : 48.0 kHz Frame rate : 46.875 FPS (1024 SPF) Compression mode : Lossy Stream size : 22.1 MiB (3%) Language : Japanese Default : Yes Forced : No ```

File list