[neoHEVC] Super Cub [Season 1] [BD 1080p x265 HEVC AAC]

Category:
Date:
2021-10-29 17:24 UTC
Submitter:
Seeders:
21
Information:
Leechers:
0
File size:
3.5 GiB
Completed:
232
Info hash:
f059d42a3784ded5547dce79d08fc41adf1a72b1
![](https://i.imgur.com/RBlGp48.png) *Join **[Discord](https://discord.gg/47Q7FdB54e)** for Current Projects and Seed-Request in case of no available seeds.* **Super Cub [Season 1]** *with `Jpn Dub` and `Eng Subs` in `1080p HEVC`* Encode of [AB] (BDMV x264 AVC FLAC) to (x265 HEVC AAC) with added English subtitles from [Pasta]. *Work done on subtitles: EP 1: Created chapters, brought over the eyecatch sign style from other episodes and the ED. EP 2: Brought over OP and ED.* ![](https://i.imgur.com/4iegWLL.png) **[Trailer](https://www.youtube.com/watch?v=NbWU6B0qjMY)** ![](https://i.imgur.com/3UxGuWB.png) ![](https://i.imgur.com/ZCtSawZ.png) **[MyAnimeList](https://myanimelist.net/anime/40685/Super_Cub)** --- **Synopsis** Koguma, a reserved second-year high school student, has nothing—no parents, hobbies, friends, or goals. On her way home one afternoon, she visits a vehicle shop in hopes of acquiring a motor scooter. With only enough money to make ends meet, she is disheartened by the price tags and prepares to turn back. However, as she is about to leave, the shop's owner offers her a pre-owned Honda Super Cub for ten thousand yen. Believing that the motorcycle will help brighten her monotonous world, she accepts the deal. As Koguma journeys through her town on small adventures with her Super Cub, she begins to build irreplaceable friendships and eagerly advances toward her new life. ![](https://i.imgur.com/ETbkt5u.png) --- **Comparison** *Open links, toggle with mouseclick and check title.* [![](https://i.imgur.com/kQMd1EI.png)](https://slow.pics/c/XiDlPYyU) [![](https://i.imgur.com/wiPXTQB.png)](https://slow.pics/c/ejgEeaB9) [![](https://i.imgur.com/KrcGce5.png)](https://slow.pics/c/5I1VJPfg) --- **Source** 🗃️ Video and JPN Audio: **[AB]** 🗃️ Subtitles: **[[Pasta]](https://nyaa.si/view/1368940)** 💬 *Subtitles Info: [Pasta] - Format `ASS`* --- **Media Info** ``` General Unique ID : 254329576368486886020801017448012655119 (0xBF56183D6A9503A02B99FD70B73F2A0F) Complete name : Super Cub - S01E01.mkv Format : Matroska Format version : Version 4 File size : 222 MiB Duration : 24 min 11 s Overall bit rate : 1 285 kb/s Movie name : Super Cub - S01E01 Encoded date : UTC 2021-10-28 17:43:08 Writing application : mkvmerge v57.0.0 ('Till The End') 64-bit Writing library : libebml v1.4.2 + libmatroska v1.6.4 / Lavf58.76.100 Attachments : 851MkPOP.ttf / EAGERNATURALIST.TTF / AGaramondPro-Regular.otf / ITCKRIST.TTF / GandhiSans-Bold.otf / GANDHISANS-BOLDITALIC.OTF Video ID : 1 Format : HEVC Format/Info : High Efficiency Video Coding Format profile : Main 10@L4.1@High Codec ID : V_MPEGH/ISO/HEVC Duration : 24 min 11 s Bit rate : 1 019 kb/s Width : 1 920 pixels Height : 1 080 pixels Display aspect ratio : 16:9 Frame rate mode : Constant Frame rate : 23.976 (24000/1001) FPS Color space : YUV Chroma subsampling : 4:2:0 Bit depth : 10 bits Bits/(Pixel*Frame) : 0.020 Stream size : 176 MiB (79%) Writing library : x265 3.5+1-f0c1022b6:[Windows][GCC 9.2.0][64 bit] 10bit Encoding settings : cpuid=1111039 / frame-threads=2 / numa-pools=4 / wpp / no-pmode / no-pme / no-psnr / no-ssim / log-level=2 / input-csp=1 / input-res=1920x1080 / interlace=0 / total-frames=0 / level-idc=41 / high-tier=1 / uhd-bd=0 / ref=5 / no-allow-non-conformance / no-repeat-headers / annexb / no-aud / no-hrd / info / hash=0 / no-temporal-layers / open-gop / min-keyint=24 / keyint=240 / gop-lookahead=0 / bframes=16 / b-adapt=2 / b-pyramid / bframe-bias=0 / rc-lookahead=120 / lookahead-slices=4 / scenecut=40 / hist-scenecut=0 / radl=0 / no-splice / no-intra-refresh / ctu=64 / min-cu-size=8 / rect / no-amp / max-tu-size=32 / tu-inter-depth=1 / tu-intra-depth=1 / limit-tu=0 / rdoq-level=2 / dynamic-rd=0.00 / no-ssim-rd / signhide / no-tskip / nr-intra=0 / nr-inter=0 / no-constrained-intra / strong-intra-smoothing / max-merge=3 / limit-refs=3 / limit-modes / me=3 / subme=3 / merange=57 / temporal-mvp / no-frame-dup / no-hme / weightp / no-weightb / no-analyze-src-pics / deblock=-1:-1 / no-sao / no-sao-non-deblock / rd=4 / selective-sao=0 / no-early-skip / rskip / no-fast-intra / no-tskip-fast / no-cu-lossless / no-b-intra / no-splitrd-skip / rdpenalty=0 / psy-rd=1.50 / psy-rdoq=1.00 / no-rd-refine / no-lossless / cbqpoffs=0 / crqpoffs=0 / rc=crf / crf=21.0 / qcomp=0.60 / qpstep=4 / stats-write=0 / stats-read=0 / vbv-maxrate=50000 / vbv-bufsize=50000 / vbv-init=0.9 / min-vbv-fullness=50.0 / max-vbv-fullness=80.0 / crf-max=0.0 / crf-min=0.0 / ipratio=1.40 / pbratio=1.30 / aq-mode=3 / aq-strength=0.80 / cutree / zone-count=0 / no-strict-cbr / qg-size=32 / no-rc-grain / qpmax=69 / qpmin=0 / no-const-vbv / sar=1 / overscan=0 / videoformat=5 / range=0 / colorprim=1 / transfer=1 / colormatrix=1 / chromaloc=0 / display-window=0 / cll=0,0 / min-luma=0 / max-luma=1023 / log2-max-poc-lsb=8 / vui-timing-info / vui-hrd-info / slices=1 / no-opt-qp-pps / no-opt-ref-list-length-pps / no-multi-pass-opt-rps / scenecut-bias=0.05 / hist-threshold=0.03 / no-opt-cu-delta-qp / no-aq-motion / no-hdr10 / no-hdr10-opt / no-dhdr10-opt / no-idr-recovery-sei / analysis-reuse-level=0 / analysis-save-reuse-level=0 / analysis-load-reuse-level=0 / scale-factor=0 / refine-intra=0 / refine-inter=0 / refine-mv=1 / refine-ctu-distortion=0 / no-limit-sao / ctu-info=0 / no-lowpass-dct / refine-analysis-type=0 / copy-pic=1 / max-ausize-factor=1.0 / no-dynamic-refine / no-single-sei / no-hevc-aq / no-svt / no-field / qp-adaptation-range=1.00 / scenecut-aware-qp=0conformance-window-offsets / right=0 / bottom=0 / decoder-max-rate=0 / no-vbv-live-multi-pass Default : Yes Forced : No Color range : Limited Color primaries : BT.709 Transfer characteristics : BT.709 Matrix coefficients : BT.709 Audio ID : 2 Format : AAC LC Format/Info : Advanced Audio Codec Low Complexity Codec ID : A_AAC-2 Duration : 24 min 11 s Bit rate : 252 kb/s Channel(s) : 2 channels Channel layout : L R Sampling rate : 48.0 kHz Frame rate : 46.875 FPS (1024 SPF) Compression mode : Lossy Stream size : 43.6 MiB (20%) Title : Stereo - JPN (AAC) Language : Japanese Default : Yes Forced : No Text ID : 3 Format : ASS Codec ID : S_TEXT/ASS Codec ID/Info : Advanced Sub Station Alpha Duration : 23 min 32 s Bit rate : 43 b/s Count of elements : 128 Compression mode : Lossless Stream size : 7.51 KiB (0%) Title : Dialogue - ENG (ASS) Language : English Default : Yes Forced : No Menu 00:00:00.000 : Intro 00:03:59.948 : Part 1 00:21:43.660 : Ending 00:24:05.903 : Preview ```

File list

  • [neoHEVC] Super Cub [Season 1] [BD 1080p x265 HEVC AAC]
    • Super Cub - S01E01.mkv (222.5 MiB)
    • Super Cub - S01E02.mkv (288.9 MiB)
    • Super Cub - S01E03.mkv (311.6 MiB)
    • Super Cub - S01E04.mkv (324.2 MiB)
    • Super Cub - S01E05.mkv (341.6 MiB)
    • Super Cub - S01E06.mkv (367.1 MiB)
    • Super Cub - S01E07.mkv (283.9 MiB)
    • Super Cub - S01E08.mkv (278.4 MiB)
    • Super Cub - S01E09.mkv (287.4 MiB)
    • Super Cub - S01E10.mkv (305.9 MiB)
    • Super Cub - S01E11.mkv (243.1 MiB)
    • Super Cub - S01E12.mkv (314.4 MiB)
> 10b > banding EPIC
based release thanks, here's to hoping you will do heartcatch precure bd's