[neoHEVC] Dropout Idol Fruit Tart [Season 1] [BD 1080p x265 HEVC AAC] [Dual Audio] Ochikobore Fruit Tart

Category:
Date:
2021-10-23 12:54 UTC
Submitter:
Seeders:
18
Information:
Leechers:
0
File size:
3.6 GiB
Completed:
1037
Info hash:
35815449cc76c1510b6b39edb5a74ba58d1a4285
![](https://i.imgur.com/RBlGp48.png) *Join **[Discord](https://discord.gg/47Q7FdB54e)** for Current Projects and Seed-Request in case of no available seeds.* **Dropout Idol Fruit Tart / Ochikobore Fruit Tart [Season 1]** *with `Dual Audio (Jpn/Eng)` and `Eng Subs` in `BD 1080p HEVC`* Reencode of [IrizaRaws] (x264 AVC FLAC) to (x265 HEVC AAC) with added English audio tracks from [Metaljerk] and English subtitles from [SubsPlease, edited]. *Work done on subtitles: Restyling, OPED, [Signs & Songs] tracks.* ![](https://i.imgur.com/4iegWLL.png) **[Trailer](https://www.youtube.com/watch?v=Y1l1RpW7mk4)** ![](https://i.imgur.com/3UxGuWB.png) ![](https://i.imgur.com/ZCtSawZ.png) **[MyAnimeList](https://myanimelist.net/anime/39609/Ochikobore_Fruit_Tart)** --- **Synopsis** Fourth dormitory of the Rat Production (commonly known as Nezumi-sou)β€”the place where dropout idol girls live: the former child actor Sekino Roko, musician Nukui Hayu, and model Maehara Nina. Sakura Ino, who always dreamed of becoming an idol, moves in. At the same time, the decision is made to demolish the dormitory. Due to the project launched by the manager Kajino Hoho, "Ochikobore Fruit Tart," occupants of the dormitory form a new idol group called "Fruit Tart" and start their activities in order to repay a one hundred million yen debt. ![](https://i3.lensdump.com/i/gdMq3k.gif) --- **Language Options** I included two simple scripts that you can apply to these files to do the following (Windows only): 1. Change [Default Tracks]: Switches default tracks to *A:Japanese S:Dialog* 2. Make [Single Audio]: Throws out *English audio* and *Signs&Songs subtitles* tracks To apply these put all the video files into the *Language Options* folder and run the .bat file. --- **Comparison** *Open links, toggle with mouseclick and check title.* [![](https://i.imgur.com/p566WEB.png)](https://slow.pics/c/94CRyYJh) [![](https://i.imgur.com/KPoz637.png)](https://slow.pics/c/yIdxmGjA) [![](https://i.imgur.com/AqPtiK0.png)](https://slow.pics/c/wmpTpEmZ) --- **Source** πŸ—ƒοΈ Video and JPN Audio: **[[IrizaRaws]](https://nyaa.si/view/1376715)** πŸ—ƒοΈ ENG Audio: **[[Metaljerk]](https://nyaa.si/view/1445574)** πŸ—ƒοΈ Subtitles: **[[SubsPlease]](https://nyaa.si/view/1323248)** πŸ’¬ *Subtitles Info: [SubsPlease] Base [Me] Restyling, OPED - Format `ASS`* --- **Media Info** πŸ†” [Full Mediainfo incl. Encoder Settings](https://pastebin.com/GBAXASch) ``` General Unique ID : 226486662872328660920756667122532929709 (0xAA63BE9E4D9FE464CF64AD4AB7AAD0AD) Complete name : Dropout Idol Fruit Tart - S01E01.mkv Format : Matroska Format version : Version 4 File size : 332 MiB Duration : 23 min 41 s Overall bit rate : 1 957 kb/s Movie name : Dropout Idol Fruit Tart - S01E01 Encoded date : UTC 2021-10-23 12:31:27 Writing application : mkvmerge v57.0.0 ('Till The End') 64-bit Writing library : libebml v1.4.2 + libmatroska v1.6.4 / Lavf58.47.100 Attachments : KGMissKindyMarker.ttf / CRONOSPRO-BOLD.OTF / CRONOSPRO-BOLDIT.OTF Video ID : 1 Format : HEVC Format/Info : High Efficiency Video Coding Format profile : Main 10@L4.1@High Codec ID : V_MPEGH/ISO/HEVC Duration : 23 min 41 s Bit rate : 1 551 kb/s Width : 1 920 pixels Height : 1 080 pixels Display aspect ratio : 16:9 Frame rate mode : Variable Frame rate : 23.976 FPS Color space : YUV Chroma subsampling : 4:2:0 Bit depth : 10 bits Bits/(Pixel*Frame) : 0.031 Stream size : 263 MiB (79%) Writing library : x265 3.5+1-f0c1022b6:[Windows][GCC 9.2.0][64 bit] 10bit Encoding settings : <Check Link Above> Default : Yes Forced : No Color range : Limited Color primaries : BT.709 Transfer characteristics : BT.709 Matrix coefficients : BT.709 Audio #1 ID : 2 Format : AAC LC Format/Info : Advanced Audio Codec Low Complexity Codec ID : A_AAC-2 Duration : 23 min 40 s Bit rate : 197 kb/s Channel(s) : 2 channels Channel layout : L R Sampling rate : 48.0 kHz Frame rate : 46.875 FPS (1024 SPF) Compression mode : Lossy Stream size : 33.3 MiB (10%) Title : Stereo - ENG (AAC) Writing library : Lavc58.93.100 aac Default : Yes Forced : No Audio #2 ID : 3 Format : AAC LC Format/Info : Advanced Audio Codec Low Complexity Codec ID : A_AAC-2 Duration : 23 min 41 s Bit rate : 204 kb/s Channel(s) : 2 channels Channel layout : L R Sampling rate : 48.0 kHz Frame rate : 46.875 FPS (1024 SPF) Compression mode : Lossy Delay relative to video : 21 ms Stream size : 34.6 MiB (10%) Title : Stereo - JPN (AAC) Language : Japanese Default : No Forced : No Text #1 ID : 4 Format : ASS Codec ID : S_TEXT/ASS Codec ID/Info : Advanced Sub Station Alpha Duration : 21 min 55 s Bit rate : 137 b/s Count of elements : 211 Compression mode : Lossless Stream size : 22.0 KiB (0%) Title : Signs & Songs - ENG (ASS) Writing library : Lavc58.93.100 ssa Language : English Default : Yes Forced : No Text #2 ID : 5 Format : ASS Codec ID : S_TEXT/ASS Codec ID/Info : Advanced Sub Station Alpha Duration : 23 min 29 s Bit rate : 283 b/s Count of elements : 605 Compression mode : Lossless Stream size : 48.8 KiB (0%) Title : Dialogue - ENG (ASS) Writing library : Lavc58.93.100 ssa Language : English Default : No Forced : No Menu 00:00:00.000 : :Intro 00:07:59.604 : :OP 00:09:28.985 : :Part A 00:14:53.893 : :Part B 00:21:02.386 : :ED 00:22:31.934 : :Outro 00:23:10.890 : :Preview ```

File list

  • [neoHEVC] Dropout Idol Fruit Tart [Season 1] [BD 1080p x265 HEVC AAC] [Dual Audio]
    • Language Options
      • 1. Change [Default Tracks].bat (162 Bytes)
      • 2. Make [Single Audio] Japanese.bat (166 Bytes)
      • mkvmerge.exe (9.6 MiB)
      • readme.txt (411 Bytes)
    • Dropout Idol Fruit Tart - S01E01.mkv (331.7 MiB)
    • Dropout Idol Fruit Tart - S01E02.mkv (309.6 MiB)
    • Dropout Idol Fruit Tart - S01E03.mkv (348.9 MiB)
    • Dropout Idol Fruit Tart - S01E04.mkv (299.2 MiB)
    • Dropout Idol Fruit Tart - S01E05.mkv (287.4 MiB)
    • Dropout Idol Fruit Tart - S01E06.mkv (325.6 MiB)
    • Dropout Idol Fruit Tart - S01E07.mkv (279.9 MiB)
    • Dropout Idol Fruit Tart - S01E08.mkv (318.8 MiB)
    • Dropout Idol Fruit Tart - S01E09.mkv (322.2 MiB)
    • Dropout Idol Fruit Tart - S01E10.mkv (313.8 MiB)
    • Dropout Idol Fruit Tart - S01E11.mkv (282.3 MiB)
    • Dropout Idol Fruit Tart - S01E12.mkv (298.2 MiB)
nice, thank you :)

neoborn (uploader)

User
![](https://i.imgur.com/4U9UQGe.png)
Thank you neo, and for making it always so easy to switch to JP in a few actions.
I've noticed that in a number of your recent duel audio releases, the EN > JP switch batch file works fine, but the EN audio delete batch instead deletes the JP audio and full EN subs. :/