[MagicStar] Saiai no Hito ~The other side of Nihon Chinbotsu~ EP02 [WEBDL] [720p] [PARAVI]

Category:
Date:
2021-10-18 16:36 UTC
Submitter:
Seeders:
4
Information:
Leechers:
1
File size:
281.7 MiB
Completed:
985
Info hash:
1cd1e88b3daef3870616fdb4cb66b31a972a01ca
HD 720p from Paravi. ![alt text](https://i.ibb.co/SXF8ff5/95364396903.jpg) ![alt text](https://i.ibb.co/rkJhHV0/Saiai-no-Hito-The-other-side-of-Nihon-Chinbotsu-EP02-720p-PARAVI-WEB-DL-AAC2-0-H-264-Magic-Star-mkv.jpg) ``` General Unique ID : 245737087506772542879710358248830826516 (0xB8DF3DD4C06113883CEF908B37F07814) Complete name : Saiai.no.Hito.The.other.side.of.Nihon.Chinbotsu.EP02.720p.PARAVI.WEB-DL.AAC2.0.H.264-MagicStar.mkv Format : Matroska Format version : Version 4 File size : 282 MiB Duration : 16 min 46 s Overall bit rate : 2 349 kb/s Encoded date : UTC 2021-10-18 16:09:51 Writing application : mkvmerge v50.0.0 ('Awakenings') 64-bit Writing library : libebml v1.4.0 + libmatroska v1.6.2 Cover : Yes Attachments : cover.png Video ID : 1 Format : AVC Format/Info : Advanced Video Codec Format profile : High@L3.1 Format settings : CABAC / 4 Ref Frames Format settings, CABAC : Yes Format settings, Reference fra : 4 frames Codec ID : V_MPEG4/ISO/AVC Duration : 16 min 46 s Bit rate : 2 279 kb/s Width : 1 280 pixels Height : 720 pixels Display aspect ratio : 16:9 Frame rate mode : Constant Frame rate : 29.970 (29970/1000) FPS Original frame rate : 29.970 (30000/1001) FPS Color space : YUV Chroma subsampling : 4:2:0 Bit depth : 8 bits Scan type : Progressive Bits/(Pixel*Frame) : 0.083 Stream size : 273 MiB (97%) Default : Yes Forced : No Color range : Limited Color primaries : BT.709 Transfer characteristics : BT.709 Matrix coefficients : BT.709 Audio ID : 2 Format : AAC LC Format/Info : Advanced Audio Codec Low Complexity Codec ID : A_AAC-2 Duration : 16 min 46 s Bit rate : 61.4 kb/s Channel(s) : 2 channels Channel layout : L R Sampling rate : 48.0 kHz Frame rate : 46.875 FPS (1024 SPF) Compression mode : Lossy Stream size : 7.36 MiB (3%) Language : Japanese Default : Yes Forced : No ```

File list

Thank you so much. It will be pleasure from now on.