[ADF] Kyary Pamyu Pamyu Music Video Collection - KPPMV01 - KPP Best (BD 1920x1080 x264 10bit FLAC).mkv

Category:
Date:
2021-10-18 02:01 UTC
Submitter:
Seeders:
3
Information:
Leechers:
0
File size:
11.2 GiB
Completed:
91
Info hash:
f9ff2dee9843a7e630994becba48c8756c0ec727
Join in to our chats in [Discord](https://discord.gg/EkcFw3k) and [Telegram](https://t.me/AnimeDreamSubs) Follow us on the social networks in [Facebook](https://www.facebook.com/AnimeDreamSubs), [Twitter](https://www.twitter.com/AnimeDreamSubs) and [Instagram](https://www.instagram.com/animedreamsubs) Primera colección de videos musicales de Kyary Pamyu Pamyu. Incluye 14 MVs y un extra que muestra pequeños detrás de escenas. Lista de canciones: - Tsukema Tsukeru - CANDY CANDY - Fashion Monster - Furisodation - Ninja ri Bang Bang - Invader Invader - Mottai Night Land - Yume no Hajima Ring Ring - Family Party - Kira Kira Killer - Mondai Girl - Crazy Party Night / Pumpkin no Gyakushuu - Cherry Bonbon - Kyary ANAN - Mikoukai - Backstage ![](https://puu.sh/IsKpP/11adbf8781.jpg) ```General Unique ID : 46972832755363149592667469787310051031 (0x2356A375E41C367CE3343895604BCED7) Complete name : E:\Seedeos\[ADF] Kyary Pamyu Pamyu Music Video Collection - KPPMV01 - KPP Best (BD 1920x1080 x264 10bit FLAC).mkv Format : Matroska Format version : Version 4 File size : 11.2 GiB Duration : 1 h 27 min Overall bit rate mode : Variable Overall bit rate : 18.4 Mb/s Encoded date : UTC 2021-10-18 01:10:34 Writing application : mkvmerge v62.0.0 ('Apollo') 64-bit Writing library : libebml v1.4.2 + libmatroska v1.6.4 Video ID : 1 Format : AVC Format/Info : Advanced Video Codec Format profile : High 10@L5 Format settings : CABAC / 5 Ref Frames Format settings, CABAC : Yes Format settings, Reference fra : 5 frames Codec ID : V_MPEG4/ISO/AVC Duration : 1 h 27 min Bit rate : 16.6 Mb/s Width : 1 920 pixels Height : 1 080 pixels Display aspect ratio : 16:9 Frame rate mode : Constant Frame rate : 23.976 (24000/1001) FPS Color space : YUV Chroma subsampling : 4:2:0 Bit depth : 10 bits Scan type : Progressive Bits/(Pixel*Frame) : 0.333 Stream size : 10.1 GiB (90%) Title : Video x264 AVC 10bit 1080p Writing library : x264 core 157 r2969 d4099dd Encoding settings : cabac=1 / ref=5 / deblock=1:-1:-1 / analyse=0x3:0x133 / me=umh / subme=10 / psy=1 / psy_rd=1.00:0.15 / mixed_ref=1 / me_range=32 / chroma_me=1 / trellis=2 / 8x8dct=1 / cqm=0 / deadzone=21,11 / fast_pskip=1 / chroma_qp_offset=-3 / threads=12 / lookahead_threads=2 / sliced_threads=0 / nr=0 / decimate=1 / interlaced=0 / bluray_compat=0 / constrained_intra=0 / bframes=8 / b_pyramid=2 / b_adapt=2 / b_bias=0 / direct=3 / weightb=1 / open_gop=0 / weightp=2 / keyint=240 / keyint_min=23 / scenecut=40 / intra_refresh=0 / rc_lookahead=60 / rc=crf / mbtree=1 / crf=15.0 / qcomp=0.60 / qpmin=0 / qpmax=81 / qpstep=4 / ip_ratio=1.40 / aq=1:1.00 Language : Japanese Default : Yes Forced : No Audio ID : 2 Format : FLAC Format/Info : Free Lossless Audio Codec Codec ID : A_FLAC Duration : 1 h 27 min Bit rate mode : Variable Bit rate : 1 820 kb/s Channel(s) : 2 channels Channel layout : L R Sampling rate : 48.0 kHz Frame rate : 11.719 FPS (4096 SPF) Bit depth : 24 bits Compression mode : Lossless Stream size : 1.11 GiB (10%) Title : Audio FLAC 2.0 Writing library : libFLAC 1.3.2 (UTC 2017-01-01) Language : Japanese Default : Yes Forced : No Menu 00:00:00.000 : ja:PONPONPON 00:04:15.755 : ja:Tsukema Tsukeru 00:08:49.195 : ja:CANDY CANDY 00:12:46.499 : ja:Fashion Monster 00:17:34.386 : ja:Furisodation 00:21:57.816 : ja:Ninja Re Bang Bang 00:26:25.250 : ja:Invader Invader 00:30:53.218 : ja:Mottai Land Night 00:35:03.134 : ja:Yume no Hajima Ring Ring 00:38:39.383 : ja:Family Party 00:42:21.105 : ja:Kira Kira Killer 00:46:44.101 : ja:Monday Girl 00:51:23.146 : ja:Crazy Party Night / Pumpkin no Gyakushuu 00:55:40.437 : ja:Cherry Bonbon 00:59:22.158 : ja:Kyary ANAN 01:02:43.526 : ja:Mikoukai - KPPMV 01 Backstage ``` ----------------------------------------------------- [BDISO Source](https://nyaa.si/view/975618)

File list

  • [ADF] Kyary Pamyu Pamyu Music Video Collection - KPPMV01 - KPP Best (BD 1920x1080 x264 10bit FLAC).mkv (11.2 GiB)