[MagicStar] Shinigami-San EP05 [WEBDL] [1080p] [HULU] [JPN_SUB]

Category:
Date:
2021-10-16 05:47 UTC
Submitter:
Seeders:
5
Information:
Leechers:
0
File size:
1.1 GiB
Completed:
714
Info hash:
08f2523e1523ec8e8827246bb04cf2f4a68e3ed1
HD 1080p from HULU JAPAN Original Series. ![alt text](https://i.ibb.co/PTHSNPB/30d26dea-c4ab-407c-bb3d-738902b524ca.jpg) ![alt text](https://i.ibb.co/6BgFn7r/Shinigami-San-EP05-1080p-HULU-WEB-DL-AAC2-0-H-264-Magic-Star-mkv.jpg) ``` General Unique ID : 133771703214075374409837690649876724244 (0x64A37E2E3F20B07019E13C8AB9157A14) Complete name : Shinigami.San.EP05.1080p.HULU.WEB-DL.AAC2.0.H.264-MagicStar.mkv Format : Matroska Format version : Version 4 File size : 1.08 GiB Duration : 51 min 29 s Overall bit rate : 3 008 kb/s Encoded date : UTC 2021-10-15 22:06:53 Writing application : mkvmerge v50.0.0 ('Awakenings') 64-bit Writing library : libebml v1.4.0 + libmatroska v1.6.2 Cover : Yes Attachments : cover.png Video ID : 1 Format : AVC Format/Info : Advanced Video Codec Format profile : High@L4 Format settings : CABAC / 4 Ref Frames Format settings, CABAC : Yes Format settings, Reference fra : 4 frames Codec ID : V_MPEG4/ISO/AVC Duration : 51 min 29 s Bit rate : 2 880 kb/s Width : 1 920 pixels Height : 1 080 pixels Display aspect ratio : 16:9 Frame rate mode : Constant Frame rate : 29.970 (29970/1000) FPS Original frame rate : 29.970 (30000/1001) FPS Color space : YUV Chroma subsampling : 4:2:0 Bit depth : 8 bits Scan type : Progressive Bits/(Pixel*Frame) : 0.046 Stream size : 1.04 GiB (96%) Default : Yes Forced : No Color range : Limited Color primaries : BT.709 Transfer characteristics : BT.709 Matrix coefficients : BT.709 Audio ID : 2 Format : AAC LC Format/Info : Advanced Audio Codec Low Complexity Codec ID : A_AAC-2 Duration : 51 min 29 s Bit rate : 125 kb/s Channel(s) : 2 channels Channel layout : L R Sampling rate : 48.0 kHz Frame rate : 46.875 FPS (1024 SPF) Compression mode : Lossy Stream size : 46.2 MiB (4%) Language : Japanese Default : Yes Forced : No ```

File list