[neoHEVC] Higehiro: After Being Rejected, I Shaved and Took in a High School Runaway. [Season 1] [BD 1080p x265 HEVC AAC] Hige wo Soru. Soshite Joshikousei wo Hirou.

Category:
Date:
2021-10-14 19:02 UTC
Submitter:
Seeders:
18
Information:
Leechers:
2
File size:
2.8 GiB
Completed:
300
Info hash:
19e7171685c2a7ae31582ac81fba484dc5b7587b
![](https://i.imgur.com/RBlGp48.png) *Join **[Discord](https://discord.gg/47Q7FdB54e)** for Current Projects and Seed-Request in case of no available seeds.* **Higehiro: After Being Rejected, I Shaved and Took in a High School Runaway. / Hige wo Soru. Soshite Joshikousei wo Hirou. [Season 1]** *with `Jpn Dub` and `Eng Subs` in `1080p HEVC`* Encode of [TTGA] (BDREMUX x264 AVC FLAC) to (x265 HEVC AAC) with added English subtitles from [SubsPlease, edited]. *Work done on subtitles: Restyled all dialog. Removed most hard linebreaks to make more natural looking lines. Removed signs that weren't there in the BD version compared to WEB. Inserted OP/ED from [EMBER].* ![](https://i.imgur.com/4iegWLL.png) **[Trailer](https://www.youtube.com/watch?v=nFljVg8xELU)** ![](https://i.imgur.com/3UxGuWB.png) ![](https://i.imgur.com/ZCtSawZ.png) **[MyAnimeList](https://myanimelist.net/anime/40938/Hige_wo_Soru_Soshite_Joshikousei_wo_Hirou)** --- **Synopsis** When regular salaryman Yoshida wakes up one Sunday morning after a long night at the bar, the last thing he expects to see is that his tiny apartment has a new resident—an unfamiliar high school girl. The previous night, despite finally gathering the courage to confess to his boss and longtime crush, Airi Gotou, Yoshida was rejected. After drowning his sorrows at a bar with his good friend Hashimoto, Yoshida headed back to his home in a drunken stupor, only to run into Sayu Ogiwara, a runaway high schooler. She asked him to let her stay the night, and with his judgment clouded by alcohol, Yoshida complied. Now, with his head on straight but with no memory of last night's events, Yoshida has Sayu explain just how she ended up sleeping at his apartment. Having listened to her story, Yoshida finds himself unable to kick her out—especially after learning that she came all the way from Hokkaido! So, despite his reservations about sheltering an underage girl, Yoshida allows her to stay, and their life together begins. ![](https://i.imgur.com/0WWGBMD.png) --- **Comparison** *Open links, toggle with mouseclick and check title.* [![](https://i.imgur.com/qv5gzdu.png)](https://slow.pics/c/08YGOPPB) [![](https://i.imgur.com/nLf1bMI.png)](https://slow.pics/c/PnuvdF9b) [![](https://i.imgur.com/qpcB7Rq.png)](https://slow.pics/c/i53vC15j) --- **Source** 🗃️ Video and JPN Audio: **[[TTGA]](https://nyaa.si/view/1443024)** 🗃️ Subtitles: **[[SubsPlease]](https://nyaa.si/view/1406685)** **[[EMBER]](https://nyaa.si/view/1443434)** 💬 *Subtitles Info: [SubsPlease] Base, [EMBER] OPED [Me] Styling and formatting - Format `ASS`* --- **Media Info** ``` General Unique ID : 309518639268463759746527896395353254562 (0xE8DB1F1F4C2B755FA9C805F128056AA2) Complete name : Higehiro - S01E01.mkv Format : Matroska Format version : Version 4 File size : 165 MiB Duration : 23 min 36 s Overall bit rate : 979 kb/s Movie name : Higehiro - S01E01 Encoded date : UTC 2021-10-13 21:37:15 Writing application : mkvmerge v57.0.0 ('Till The End') 64-bit Writing library : libebml v1.4.2 + libmatroska v1.6.4 / Lavf58.76.100 Attachments : CRONOSPRO-BOLD.OTF / arial_2.ttf / ARIALBD_0.TTF Video ID : 1 Format : HEVC Format/Info : High Efficiency Video Coding Format profile : Main 10@L4.1@High Codec ID : V_MPEGH/ISO/HEVC Duration : 23 min 36 s Bit rate : 851 kb/s Width : 1 920 pixels Height : 1 080 pixels Display aspect ratio : 16:9 Frame rate mode : Constant Frame rate : 23.976 (24000/1001) FPS Color space : YUV Chroma subsampling : 4:2:0 Bit depth : 10 bits Bits/(Pixel*Frame) : 0.017 Stream size : 144 MiB (87%) Writing library : x265 3.5+1-f0c1022b6:[Windows][GCC 9.2.0][64 bit] 10bit Encoding settings : cpuid=1111039 / frame-threads=2 / numa-pools=4 / wpp / no-pmode / no-pme / no-psnr / no-ssim / log-level=2 / input-csp=1 / input-res=1920x1080 / interlace=0 / total-frames=0 / level-idc=41 / high-tier=1 / uhd-bd=0 / ref=5 / no-allow-non-conformance / no-repeat-headers / annexb / no-aud / no-hrd / info / hash=0 / no-temporal-layers / open-gop / min-keyint=24 / keyint=240 / gop-lookahead=0 / bframes=16 / b-adapt=2 / b-pyramid / bframe-bias=0 / rc-lookahead=120 / lookahead-slices=4 / scenecut=40 / hist-scenecut=0 / radl=0 / no-splice / no-intra-refresh / ctu=64 / min-cu-size=8 / rect / no-amp / max-tu-size=32 / tu-inter-depth=1 / tu-intra-depth=1 / limit-tu=0 / rdoq-level=2 / dynamic-rd=0.00 / no-ssim-rd / signhide / no-tskip / nr-intra=0 / nr-inter=0 / no-constrained-intra / strong-intra-smoothing / max-merge=3 / limit-refs=3 / limit-modes / me=3 / subme=3 / merange=57 / temporal-mvp / no-frame-dup / no-hme / weightp / no-weightb / no-analyze-src-pics / deblock=-1:-1 / no-sao / no-sao-non-deblock / rd=4 / selective-sao=0 / no-early-skip / rskip / no-fast-intra / no-tskip-fast / no-cu-lossless / no-b-intra / no-splitrd-skip / rdpenalty=0 / psy-rd=1.50 / psy-rdoq=1.00 / no-rd-refine / no-lossless / cbqpoffs=0 / crqpoffs=0 / rc=crf / crf=19.0 / qcomp=0.60 / qpstep=4 / stats-write=0 / stats-read=0 / vbv-maxrate=50000 / vbv-bufsize=50000 / vbv-init=0.9 / min-vbv-fullness=50.0 / max-vbv-fullness=80.0 / crf-max=0.0 / crf-min=0.0 / ipratio=1.40 / pbratio=1.30 / aq-mode=3 / aq-strength=0.80 / cutree / zone-count=0 / no-strict-cbr / qg-size=32 / no-rc-grain / qpmax=69 / qpmin=0 / no-const-vbv / sar=1 / overscan=0 / videoformat=5 / range=0 / colorprim=1 / transfer=1 / colormatrix=1 / chromaloc=0 / display-window=0 / cll=0,0 / min-luma=0 / max-luma=1023 / log2-max-poc-lsb=8 / vui-timing-info / vui-hrd-info / slices=1 / no-opt-qp-pps / no-opt-ref-list-length-pps / no-multi-pass-opt-rps / scenecut-bias=0.05 / hist-threshold=0.03 / no-opt-cu-delta-qp / no-aq-motion / no-hdr10 / no-hdr10-opt / no-dhdr10-opt / no-idr-recovery-sei / analysis-reuse-level=0 / analysis-save-reuse-level=0 / analysis-load-reuse-level=0 / scale-factor=0 / refine-intra=0 / refine-inter=0 / refine-mv=1 / refine-ctu-distortion=0 / no-limit-sao / ctu-info=0 / no-lowpass-dct / refine-analysis-type=0 / copy-pic=1 / max-ausize-factor=1.0 / no-dynamic-refine / no-single-sei / no-hevc-aq / no-svt / no-field / qp-adaptation-range=1.00 / scenecut-aware-qp=0conformance-window-offsets / right=0 / bottom=0 / decoder-max-rate=0 / no-vbv-live-multi-pass Default : Yes Forced : No Color range : Limited Color primaries : BT.709 Transfer characteristics : BT.709 Matrix coefficients : BT.709 Audio ID : 2 Format : AAC LC Format/Info : Advanced Audio Codec Low Complexity Codec ID : A_AAC-2 Duration : 23 min 36 s Bit rate : 119 kb/s Channel(s) : 2 channels Channel layout : L R Sampling rate : 48.0 kHz Frame rate : 46.875 FPS (1024 SPF) Compression mode : Lossy Stream size : 20.1 MiB (12%) Title : Stereo - JPN (AAC) Language : Japanese Default : Yes Forced : No Text ID : 3 Format : ASS Codec ID : S_TEXT/ASS Codec ID/Info : Advanced Sub Station Alpha Duration : 23 min 12 s Bit rate : 104 b/s Count of elements : 358 Compression mode : Lossless Stream size : 17.8 KiB (0%) Title : Dialogue - ENG (ASS) Language : English Default : Yes Forced : No Menu 00:00:00.000 : Intro 00:01:00.060 : Episode 00:21:58.942 : Preview ```

File list

THX! Can you do Super Cub next?
Anything different on the BD?
100 dicks, maybe more
https://animesweet.com/anime/higehiro-did-not-remove-the-censorship-of-his-ecchi-scenes-in-his-blu-ray-version/
Shame it doesn't seem like they uncensored it. Only a slight resolution bump and that's it :\ I keep seeing this on my timeline to the point I followed this account for still frames. https://twitter.com/HigehiroFrames I should watch this for sure!