[Members only] [Hololive EN - Gawr Gura] [ASOBI ASOBASE] watch anime with me! [2021-10-13] - 2H_f7efVvhE

Category:
Date:
2021-10-13 04:13 UTC
Submitter:
Seeders:
1
Information:
Leechers:
0
File size:
702.3 MiB
Completed:
21
Info hash:
c656744bae74cca2d5d44f7f798fdc95cec32e5c
FROM EP 9 TO 12 ![Thumbnail](https://i.ibb.co/P9x3gRw/Members-only-Hololive-EN-Gawr-Gura-ASOBI-ASOBASE-watch-anime-with-me-2021-10-13-2-H-f7ef-Vvh-E.webp) Format : MPEG-4 >Format profile : Base Media Codec ID : isom (isom/iso2/avc1/mp41) File size : 611 MiB Duration : 2 h 14 min Overall bit rate : 635 kb/s Movie name : [ASOBI ASOBASE] watch anime with me! Performer : Gawr Gura Ch. hololive-EN Recorded date : 20211013 Writing application : Lavf59.4.102 Cover : Yes Comment : https://www.youtube.com/watch?v=2H_f7efVvhE / / watching episodes 9 - 12 today! / no audio or visuals of the show will be shown on screen! Video >ID : 3 Format : AVC Format/Info : Advanced Video Codec Format profile : Main@L4.2 Format settings : CABAC / 1 Ref Frames Format settings, CABAC : Yes Format settings, Reference : 1 frame Format settings, GOP : M=1, N=60 Codec ID : avc1 Codec ID/Info : Advanced Video Coding Duration : 2 h 14 min Bit rate : 495 kb/s Width : 1 920 pixels Height : 1 080 pixels Display aspect ratio : 16:9 Frame rate mode : Variable Frame rate : 60.000 FPS Minimum frame rate : 58.824 FPS Maximum frame rate : 62.500 FPS Color space : YUV Chroma subsampling : 4:2:0 Bit depth : 8 bits Scan type : Progressive Bits/(Pixel*Frame) : 0.004 Stream size : 477 MiB (78%) Title : ISO Media file produced by Google Inc. Created on: 10/12/2021. Color range : Limited Color primaries : BT.709 Transfer characteristics : BT.709 Matrix coefficients : BT.709 Codec configuration box : avcC Audio >ID : 1 Format : AAC LC Format/Info : Advanced Audio Codec Low Complexity Codec ID : mp4a-40-2 Duration : 2 h 14 min Bit rate mode : Constant Bit rate : 128 kb/s Channel(s) : 2 channels Channel layout : L R Sampling rate : 44.1 kHz Frame rate : 43.066 FPS (1024 SPF) Compression mode : Lossy Stream size : 123 MiB (20%) Title : ISO Media file produced by Google Inc. Created on: 10/12/2021. Default : Yes Alternate group : 1

File list

  • [Members only] [Hololive EN - Gawr Gura] [ASOBI ASOBASE] watch anime with me! [2021-10-13] - 2H_f7efVvhE
    • [Members only] [Hololive EN - Gawr Gura] [ASOBI ASOBASE] watch anime with me! [2021-10-13] - 2H_f7efVvhE.description (89 Bytes)
    • [Members only] [Hololive EN - Gawr Gura] [ASOBI ASOBASE] watch anime with me! [2021-10-13] - 2H_f7efVvhE.live_chat.json (90.9 MiB)
    • [Members only] [Hololive EN - Gawr Gura] [ASOBI ASOBASE] watch anime with me! [2021-10-13] - 2H_f7efVvhE.mp4 (611.3 MiB)
    • [Members only] [Hololive EN - Gawr Gura] [ASOBI ASOBASE] watch anime with me! [2021-10-13] - 2H_f7efVvhE.webp (52.7 KiB)