[MagicStar] Tsumari Sukitte Iitain dakedo, EP02 [WEBDL] [1080p] [PARAVI]

Category:
Date:
2021-10-12 01:26 UTC
Submitter:
Seeders:
6
Information:
Leechers:
1
File size:
906.5 MiB
Completed:
424
Info hash:
0ce4ff61ec54f6d79437123204aa8102bb165cd1
HD 1080p from Paravi. ![alt text](https://i.ibb.co/qdMz4Dc/95337666642.jpg) ![alt text](https://i.ibb.co/BNvzFyf/Tsumari-Sukitte-Iitain-dakedo-EP02-1080p-PARAVI-WEB-DL-AAC2-0-H-264-Magic-Star-mkv.jpg) ``` General Unique ID : 125405307292246043054095302291187905623 (0x5E582F03AE68C010CE2F826D96813457) Complete name : Tsumari.Sukitte.Iitain.dakedo.EP02.1080p.PARAVI.WEB-DL.AAC2.0.H.264-MagicStar.mkv Format : Matroska Format version : Version 4 File size : 907 MiB Duration : 25 min 0 s Overall bit rate : 5 069 kb/s Encoded date : UTC 2021-10-12 00:15:35 Writing application : mkvmerge v50.0.0 ('Awakenings') 64-bit Writing library : libebml v1.4.0 + libmatroska v1.6.2 Cover : Yes Attachments : cover.png Video ID : 1 Format : AVC Format/Info : Advanced Video Codec Format profile : High@L4 Format settings : CABAC / 3 Ref Frames Format settings, CABAC : Yes Format settings, Reference fra : 3 frames Format settings, GOP : M=1, N=30 Codec ID : V_MPEG4/ISO/AVC Duration : 25 min 0 s Bit rate : 4 998 kb/s Width : 1 920 pixels Height : 1 080 pixels Display aspect ratio : 16:9 Frame rate mode : Constant Frame rate : 29.970 (29970/1000) FPS Original frame rate : 29.970 (30000/1001) FPS Color space : YUV Chroma subsampling : 4:2:0 Bit depth : 8 bits Scan type : Progressive Bits/(Pixel*Frame) : 0.080 Stream size : 894 MiB (99%) Default : Yes Forced : No Audio ID : 2 Format : AAC LC Format/Info : Advanced Audio Codec Low Complexity Codec ID : A_AAC-2 Duration : 25 min 0 s Bit rate : 64.0 kb/s Channel(s) : 2 channels Channel layout : L R Sampling rate : 48.0 kHz Frame rate : 46.875 FPS (1024 SPF) Compression mode : Lossy Stream size : 11.4 MiB (1%) Language : Japanese Default : Yes Forced : No ```

File list

Streaming service changed their provider and lower their quality to 720p on the new releases. Just letting you know.

MagicStar-subs (uploader)

User
@TVLover10 I already knew it earlier. When the drm is cracked and repaired, other new drama episodes will be uploaded.
@MagicStar-subs So does that mean episodes for this drama will be taken from TVer?
Thank you so much. It will be pleasure from now on.

MagicStar-subs (uploader)

User
@TVLover10 Continue to upload paravi release version.