( Dragontime ) My Hero Academia Complete Season 5 (2021) 1080p WEB-DL AAC 2.0 H.264

Category:
Date:
2021-10-10 02:49 UTC
Submitter:
Seeders:
3
Information:
No information.
Leechers:
2
File size:
26.1 GiB
Completed:
151
Info hash:
77938511e73fd1ed6c4bd780cbd2280191e4791f
Format : Matroska Format version : Version 4 / Version 2 File size : 1.36 GiB Duration : 23mn 58s Overall bit rate : 8 145 Kbps Encoded date : UTC 2021-04-11 07:38:53 Writing application : mkvmerge v56.1.0 ('My Friend') 64-bit Writing library : libebml v1.4.2 + libmatroska v1.6.4 Cover : Yes Attachments : cover.jpg Video ID : 1 Format : AVC Format/Info : Advanced Video Codec Format profile : High@L4 Format settings, CABAC : Yes Format settings, ReFrames : 4 frames Codec ID : V_MPEG4/ISO/AVC Duration : 23mn 58s Bit rate : 8 000 Kbps Width : 1 920 pixels Height : 1 080 pixels Display aspect ratio : 16:9 Frame rate mode : Constant Frame rate : 23.976 (24000/1001) fps Color space : YUV Chroma subsampling : 4:2:0 Bit depth : 8 bits Scan type : Progressive Bits/(Pixel*Frame) : 0.161 Stream size : 1.29 GiB (95%) Writing library : x264 core 157 r2948 dada181 Encoding settings : cabac=1 / ref=1 / deblock=1:0:0 / analyse=0x3:0x113 / me=hex / subme=7 / psy=1 / psy_rd=1.00:0.00 / mixed_ref=0 / me_range=16 / chroma_me=1 / trellis=1 / 8x8dct=1 / cqm=0 / deadzone=21,11 / fast_pskip=1 / chroma_qp_offset=-2 / threads=24 / lookahead_threads=4 / sliced_threads=0 / nr=0 / decimate=1 / interlaced=0 / bluray_compat=0 / constrained_intra=0 / bframes=2 / b_pyramid=2 / b_adapt=1 / b_bias=0 / direct=1 / weightb=1 / open_gop=0 / weightp=2 / keyint=48 / keyint_min=4 / scenecut=40 / intra_refresh=0 / rc_lookahead=40 / rc=cbr / mbtree=1 / bitrate=8000 / ratetol=1.0 / qcomp=0.60 / qpmin=0 / qpmax=69 / qpstep=4 / vbv_maxrate=8000 / vbv_bufsize=24000 / nal_hrd=none / filler=0 / ip_ratio=1.40 / aq=1:1.00 Language : English Default : Yes Forced : No Audio #1 ID : 2 Format : AAC Format/Info : Advanced Audio Codec Format profile : LC Codec ID : A_AAC Duration : 23mn 58s Bit rate : 253 Kbps Channel(s) : 2 channels Channel positions : Front: L R Sampling rate : 48.0 KHz Frame rate : 46.875 fps (1024 spf) Compression mode : Lossy Delay relative to video : -42ms Stream size : 43.5 MiB (3%) Language : English Default : Yes Forced : No Audio #2 ID : 3 Format : AAC Format/Info : Advanced Audio Codec Format profile : LC Codec ID : A_AAC Duration : 23mn 58s Bit rate : 192 Kbps Channel(s) : 2 channels Channel positions : Front: L R Sampling rate : 48.0 KHz Frame rate : 46.875 fps (1024 spf) Compression mode : Lossy Delay relative to video : -42ms Stream size : 32.5 MiB (2%) Language : Japanese Default : No Forced : No Text ID : 4 Format : UTF-8 Codec ID : S_TEXT/UTF8 Codec ID/Info : UTF-8 Plain Text Duration : 23mn 48s Bit rate : 64 bps Count of elements : 379 Stream size : 11.2 KiB (0%) Language : English Default : Yes Forced : No

File list

  • My Hero Academia Complete Season 5 (2021)
    • My Hero Academia S05E01 All Hands on Deck! Class 1-A.mkv (1.4 GiB)
    • My Hero Academia S05E02 Vestiges.mkv (1.3 GiB)
    • My Hero Academia S05E03 Clash! Class A vs. Class B!.mkv (1015.9 MiB)
    • My Hero Academia S05E04 Make It Happen, Shinso!.mkv (985.1 MiB)
    • My Hero Academia S05E05 Operation New Improv Moves.mkv (994.1 MiB)
    • My Hero Academia S05E06 Foresight.mkv (999.1 MiB)
    • My Hero Academia S05E07 Match 3.mkv (1018.3 MiB)
    • My Hero Academia S05E08 Match 3 Conclusion.mkv (1012.0 MiB)
    • My Hero Academia S05E09 Early Bird!.mkv (989.3 MiB)
    • My Hero Academia S05E10 That Which Is Inherited.mkv (1013.1 MiB)
    • My Hero Academia S05E11 Our Brawl.mkv (983.8 MiB)
    • My Hero Academia S05E12 The New Power and All For One.mkv (978.0 MiB)
    • My Hero Academia S05E13 Have a Merry Christmas!.mkv (1.0 GiB)
    • My Hero Academia S05E14 Off to Endeavor's Agency!.mkv (1.0 GiB)
    • My Hero Academia S05E15 One Thing at a Time.mkv (1.1 GiB)
    • My Hero Academia S05E16 Long Time No See, Selkie.mkv (1.1 GiB)
    • My Hero Academia S05E17 The Hellish Todoroki Family.mkv (1.0 GiB)
    • My Hero Academia S05E18 The Unforgiven.mkv (1.1 GiB)
    • My Hero Academia S05E19 More of a Hero Than Anyone.mkv (1.1 GiB)
    • My Hero Academia S05E20 My Villain Academia.mkv (1.1 GiB)
    • My Hero Academia S05E21 Revival Party.mkv (1.1 GiB)
    • My Hero Academia S05E22 Sad Man's Parade.mkv (1.1 GiB)
    • My Hero Academia S05E23 Tenko Shimura Origin.mkv (1.1 GiB)
    • My Hero Academia S05E24 Tomura Shigaraki Origin.mkv (1.1 GiB)
    • My Hero Academia S05E25 The High, Deep Blue Sky.mkv (1.0 GiB)