( Dragontime ) My Hero Academia S05E25 1080p WEB-DL AAC 2.0 H.264 DUAL AUDIO

Category:
Date:
2021-10-10 02:40 UTC
Submitter:
Seeders:
6
Information:
No information.
Leechers:
0
File size:
1.0 GiB
Completed:
151
Info hash:
31c991f088cb4ae57d6b9bf6e126c2dea19b9625
Format : Matroska Format version : Version 4 / Version 2 File size : 1.02 GiB Duration : 23 min 24 s Overall bit rate : 6 249 kb/s Encoded date : UTC 2021-10-10 02:24:31 Writing application : mkvmerge v61.0.0 ('So') 64-bit Writing library : libebml v1.4.2 + libmatroska v1.6.4 Cover : Yes Attachments : cover.png / cover.png Video ID : 1 Format : AVC Format/Info : Advanced Video Codec Format profile : High@L4 Format settings, CABAC : Yes Format settings, ReFrames : 3 frames Codec ID : V_MPEG4/ISO/AVC Duration : 23 min 24 s Bit rate : 5 706 kb/s Width : 1 920 pixels Height : 1 080 pixels Display aspect ratio : 16:9 Frame rate mode : Constant Frame rate : 23.976 (24000/1001) FPS Color space : YUV Chroma subsampling : 4:2:0 Bit depth : 8 bits Scan type : Progressive Bits/(Pixel*Frame) : 0.115 Stream size : 955 MiB (91%) Language : English Default : Yes Forced : No Color range : Limited Matrix coefficients : BT.709 Audio #1 ID : 2 Format : AAC Format/Info : Advanced Audio Codec Format profile : LC Codec ID : A_AAC Duration : 23 min 24 s Bit rate : 256 kb/s Channel(s) : 2 channels Channel positions : Front: L R Sampling rate : 48.0 kHz Frame rate : 46.875 FPS (1024 spf) Compression mode : Lossy Stream size : 42.9 MiB (4%) Language : English Default : Yes Forced : No Audio #2 ID : 3 Format : AAC Format/Info : Advanced Audio Codec Format profile : LC Codec ID : A_AAC Duration : 23 min 24 s Bit rate : 256 kb/s Channel(s) : 2 channels Channel positions : Front: L R Sampling rate : 48.0 kHz Frame rate : 46.875 FPS (1024 spf) Compression mode : Lossy Stream size : 42.9 MiB (4%) Language : Japanese Default : Yes Forced : No

File list

  • My Hero Academia S05E25 The High, Deep Blue Sky.mkv (1.0 GiB)

dragontime1980 (uploader)

User
And thats a wrap on Season 5 hope you all have enjoyed my uploads ill be back for season 6