[WAV] Super Mario - History 1985-2010 (2010)

Category:
Date:
2021-10-10 02:29 UTC
Submitter:
Seeders:
3
Information:
No information.
Leechers:
0
File size:
256.2 MiB
Completed:
361
Info hash:
da8d18debe2778c3b68909032e55fa4392f16f54
![alt text](https://m.media-amazon.com/images/I/51o3QwBrOGL.jpg) > This new collection will also include a special booklet detailing the full history of Super Mario as well as a real treat for fans of the series – an audio CD containing music from Super Mario games spanning the last 25 years, from the original 1985’s Super Mario Bros. to 2010’s Super Mario Galaxy 2, with classics such as Super Mario 64 and Super Mario Sunshine along the way.

File list

More details help.

Impakt (uploader)

User

Impakt (uploader)

User
I'll be making a dedicated release as I'm going to sell it, so might as well get a backup of nearly everything.
This is a bad rip: [CUETools log; Date: 11/1/2021 4:20:41 AM; Version: 2.1.9] [CTDB TOCID: FEf4nhCXcVlFj0iKItf_4vbJGsE-] found. Track | CTDB Status 1 | (109/110) Accurately ripped 2 | ( 0/110) No match 3 | (109/110) Accurately ripped 4 | ( 0/110) No match 5 | ( 0/110) No match 6 | (110/110) Accurately ripped 7 | ( 0/110) No match 8 | (110/110) Accurately ripped 9 | (110/110) Accurately ripped 10 | ( 0/110) No match 11 | (110/110) Accurately ripped 12 | (110/110) Accurately ripped 13 | (110/110) Accurately ripped 14 | (110/110) Accurately ripped 15 | (110/110) Accurately ripped 16 | (110/110) Accurately ripped 17 | (110/110) Accurately ripped 18 | (110/110) Accurately ripped 19 | (110/110) Accurately ripped 20 | (109/110) Accurately ripped [AccurateRip ID: 001a0b31-0162fb96-1705f214] found. Track [ CRC | V2 ] Status 01 [3c322a63|9c8bbda1] (00+00/47) No match 02 [09f0ec47|0cc4beab] (00+00/49) No match 03 [2be36513|a036d67a] (00+00/49) No match 04 [a944dd2b|8a4bf77a] (00+00/49) No match 05 [fb250616|5a1cae15] (00+00/49) No match 06 [0d407e81|16ed0b2b] (00+00/49) No match 07 [0ba8b495|4731c86f] (00+00/49) No match 08 [90161e59|23cb6162] (00+00/49) No match 09 [4d29c83c|da620788] (00+00/49) No match 10 [9ed07f17|34324e88] (00+00/48) No match 11 [a2a0c9cf|07d1e51e] (00+00/12) No match 12 [154f3717|5b892c35] (00+00/12) No match 13 [79345e88|0ab4a6a8] (00+00/12) No match 14 [19125f69|78928327] (00+00/12) No match 15 [5fa2edb3|d0db52ba] (00+00/12) No match 16 [91af81ff|ed9457d8] (00+00/48) No match 17 [a28565db|d656fdf2] (00+00/12) No match 18 [3d01f85a|4fde4881] (00+00/48) No match 19 [677036e0|d7389a27] (00+00/48) No match 20 [5146b50b|feb13fa3] (00+00/48) No match Full log here: https://pastebin.com/nzqGKLAt