Kimetsu.No.Yaiba.Mugen.Ressha.Hen.2020.1080p.MULTi.BluRay.x265-SceneGuardians (VF/VOSTFR)

Category:
Date:
2021-10-05 10:54 UTC
Submitter:
Seeders:
18
Information:
Leechers:
0
File size:
2.5 GiB
Completed:
293
Info hash:
93317dbc6a136c179e2c3e6b1a28c50432fb71f5
![alt text](https://i.imgur.com/PzkHr6S.jpeg) Source : [Judas] https://nyaa.si/view/1400830 (Merci) Source Audio & Subs FR : [Sonje03/CR] (https://nyaa.si/view/1440275) (Merci) General Unique ID : 90166825033583421236159344700598384533 (0x43D57FB37869345C14A834367051F795) Complete name : Kimetsu.No.Yaiba.Mugen.Ressha.Hen.2020.1080p.MULTi.BluRay.x265-SceneGuardians.mkv Format : Matroska Format version : Version 4 File size : 2.50 GiB Duration : 1 h 56 min Overall bit rate : 3 066 kb/s Encoded date : UTC 2021-10-05 10:43:04 Writing application : mkvmerge v61.0.0 ('So') 64-bit Writing library : libebml v1.4.2 + libmatroska v1.6.4 Attachments : verdana.ttf / verdanab.ttf / verdanaz.ttf / verdanai.ttf / RAMEAU W01 ITALIC.ttf / RAMEAU W01 SEMIBOLD.TTF / RAMEAU W01 LIGHT.TTF / RAMEAU W01 LIGHTITALIC.TTF / RAMEAU W01 REGULAR.TTF / RAMEAU W01 SEMIBOLDITALIC.TTF / cambria.ttc / cambriab.ttf / cambriaz.ttf / cambriai.ttf Video ID : 1 Format : HEVC Format/Info : High Efficiency Video Coding Format profile : Main 10@L5@Main Codec ID : V_MPEGH/ISO/HEVC Duration : 1 h 56 min Bit rate : 2 679 kb/s Width : 1 920 pixels Height : 1 080 pixels Display aspect ratio : 16:9 Frame rate mode : Constant Frame rate : 23.976 (24000/1001) FPS Color space : YUV Chroma subsampling : 4:2:0 Bit depth : 10 bits Bits/(Pixel*Frame) : 0.054 Stream size : 2.19 GiB (87%) Title : [Judas] x265 10b Writing library : x265 3.4+26-ga82c6c7a7:[Windows][GCC 10.2.0][64 bit] 10bit Encoding settings : cpuid=1111039 / frame-threads=5 / numa-pools=+ / wpp / no-pmode / no-pme / no-psnr / no-ssim / log-level=2 / csv / csv-log-level=2 / input-csp=1 / input-res=1920x1080 / interlace=0 / total-frames=168024 / level-idc=0 / high-tier=1 / uhd-bd=0 / ref=6 / no-allow-non-conformance / no-repeat-headers / annexb / no-aud / no-hrd / info / hash=0 / no-temporal-layers / open-gop / min-keyint=24 / keyint=360 / gop-lookahead=0 / bframes=8 / b-adapt=2 / b-pyramid / bframe-bias=0 / rc-lookahead=250 / lookahead-slices=4 / scenecut=40 / hist-scenecut=0 / radl=0 / no-splice / no-intra-refresh / ctu=64 / min-cu-size=8 / rect / no-amp / max-tu-size=32 / tu-inter-depth=4 / tu-intra-depth=4 / limit-tu=0 / rdoq-level=2 / dynamic-rd=0.00 / no-ssim-rd / signhide / no-tskip / nr-intra=0 / nr-inter=0 / no-constrained-intra / no-strong-intra-smoothing / max-merge=5 / limit-refs=0 / limit-modes / me=3 / subme=5 / merange=57 / temporal-mvp / no-frame-dup / hme / Level / merange / L0,L1,L2=16,32,57 / weightp / weightb / no-analyze-src-pics / deblock=-2:-2 / no-sao / no-sao-non-deblock / rd=6 / selective-sao=0 / no-early-skip / rskip / no-fast-intra / no-tskip-fast / no-cu-lossless / b-intra / no-splitrd-skip / rdpenalty=0 / psy-rd=1.00 / psy-rdoq=2.00 / rd-refine / no-lossless / cbqpoffs=-1 / crqpoffs=-1 / rc=crf / crf=19.0 / qcomp=0.72 / qpstep=2 / stats-write=0 / stats-read=0 / ipratio=1.40 / pbratio=1.30 / aq-mode=3 / aq-strength=0.88 / cutree / zone-count=0 / no-strict-cbr / qg-size=32 / no-rc-grain / qpmax=69 / qpmin=0 / no-const-vbv / sar=0 / overscan=0 / videoformat=5 / range=0 / colorprim=2 / transfer=2 / colormatrix=2 / chromaloc=0 / display-window=0 / cll=0,0 / min-luma=0 / max-luma=1023 / log2-max-poc-lsb=8 / vui-timing-info / vui-hrd-info / slices=1 / no-opt-qp-pps / no-opt-ref-list-length-pps / no-multi-pass-opt-rps / scenecut-bias=0.05 / hist-threshold=0.03 / no-opt-cu-delta-qp / no-aq-motion / no-hdr10 / no-hdr10-opt / no-dhdr10-opt / no-idr-recovery-sei / analysis-reuse-level=0 / analysis-save-reuse-level=0 / analysis-load-reuse-level=0 / scale-factor=0 / refine-intra=0 / refine-inter=0 / refine-mv=1 / refine-ctu-distortion=0 / no-limit-sao / ctu-info=0 / no-lowpass-dct / refine-analysis-type=0 / copy-pic=1 / max-ausize-factor=1.0 / no-dynamic-refine / no-single-sei / no-hevc-aq / no-svt / no-field / qp-adaptation-range=1.00 / no-scenecut-aware-qpconformance-window-offsets / right=0 / bottom=0 / decoder-max-rate=0 / no-vbv-live-multi-pass Language : Japanese Default : Yes Forced : No Audio #1 ID : 2 Format : AAC LC Format/Info : Advanced Audio Codec Low Complexity Codec ID : A_AAC-2 Duration : 1 h 56 min Bit rate : 128 kb/s Channel(s) : 2 channels Channel layout : L R Sampling rate : 44.1 kHz Frame rate : 43.066 FPS (1024 SPF) Compression mode : Lossy Stream size : 107 MiB (4%) Title : Français Language : French Default : Yes Forced : No Audio #2 ID : 3 Format : Opus Codec ID : A_OPUS Duration : 1 h 56 min Bit rate : 249 kb/s Channel(s) : 6 channels Channel layout : L R C Lb Rb LFE Sampling rate : 48.0 kHz Frame rate : 50.000 FPS (960 SPF) Compression mode : Lossy Stream size : 208 MiB (8%) Title : [Judas] JAP 5.1 (Opus 256Kbps) Language : Japanese Default : No Forced : No Text #1 ID : 4 Format : ASS Codec ID : S_TEXT/ASS Codec ID/Info : Advanced Sub Station Alpha Duration : 1 h 53 min Bit rate : 1 b/s Count of elements : 13 Compression mode : Lossless Stream size : 1.18 KiB (0%) Title : Fr - Forced Language : French Default : Yes Forced : Yes Text #2 ID : 5 Format : ASS Codec ID : S_TEXT/ASS Codec ID/Info : Advanced Sub Station Alpha Duration : 1 h 55 min Bit rate : 112 b/s Count of elements : 1357 Compression mode : Lossless Stream size : 95.8 KiB (0%) Title : Fr - Full Language : French Default : No Forced : No Menu 00:00:00.000 : Chapter 01 00:05:28.828 : Chapter 02 00:16:10.678 : Chapter 03 00:23:02.589 : Chapter 04 00:35:00.723 : Chapter 05 00:44:45.683 : Chapter 06 00:50:19.933 : Chapter 07 01:00:58.571 : Chapter 08 01:06:12.259 : Chapter 09 01:19:23.091 : Chapter 10 01:31:04.750 : Chapter 11 01:47:11.216 : Chapter 12 01:51:55.875 : Chapter 13 PS : s’il vous plaît, pourriez-vous continuer à seeder pour que ce torrent puisse vivre. Merci. PS : please, could you keep seeding in order for this torrent to live. Thank you.

File list

  • Kimetsu.No.Yaiba.Mugen.Ressha.Hen.2020.1080p.MULTi.BluRay.x265-SceneGuardians.mkv (2.5 GiB)
Merci pour cette release tant attendue !

SceneDeity (uploader)

User
@mathsensey, de rien enjoy.