Scissor.Seven.S03.MULTi.1080p.NF.WEB-DL.DDP2.0.x264-Mr.Lahey (VF/VOSTFR)

Category:
Date:
2021-10-03 17:12 UTC
Submitter:
Seeders:
2
Information:
Leechers:
0
File size:
3.4 GiB
Completed:
71
Info hash:
e8c4b96d2b31cbd9bad9dac9104ebaaf63d25cf7
oui c'est un anime. ![alt text](https://cdn.myanimelist.net/images/anime/1068/106409l.webp?_gl=1*sxmlu0*_ga*MTI3NDUxODI5NS4xNjA3OTQxNjk2*_ga_26FEP9527K*MTYyNzg5MDgyNC4xMjUuMS4xNjI3ODkwODM1LjQ5) PS : j'ai retiré les subs et audio non-necessaire. General Unique ID : 272420960203825309361176135722521221630 (0xCCF25E5447F431C0AC98CB9E394659FE) Complete name : Scissor Seven S03E01 Farewell.mkv Format : Matroska Format version : Version 4 File size : 268 MiB Duration : 15 min 54 s Overall bit rate mode : Variable Overall bit rate : 2 359 kb/s Movie name : Scissor Seven S03E01 Farewell Encoded date : UTC 2021-10-03 17:04:21 Writing application : mkvmerge v61.0.0 ('So') 64-bit Writing library : libebml v1.4.2 + libmatroska v1.6.4 Video ID : 1 Format : AVC Format/Info : Advanced Video Codec Format profile : Main@L4 Format settings : CABAC / 3 Ref Frames Format settings, CABAC : Yes Format settings, Reference frames : 3 frames Codec ID : V_MPEG4/ISO/AVC Duration : 15 min 54 s Bit rate mode : Variable Bit rate : 2 101 kb/s Nominal bit rate : 2 260 kb/s Maximum bit rate : 3 390 kb/s Width : 1 920 pixels Height : 1 080 pixels Display aspect ratio : 16:9 Frame rate mode : Constant Frame rate : 24.000 FPS Color space : YUV Chroma subsampling : 4:2:0 Bit depth : 8 bits Scan type : Progressive Bits/(Pixel*Frame) : 0.042 Stream size : 239 MiB (89%) Writing library : x264 core 148 r2724 dbe0335 Encoding settings : cabac=1 / ref=3 / deblock=1:0:0 / analyse=0x1:0x111 / me=umh / subme=10 / psy=1 / psy_rd=1.00:0.00 / mixed_ref=1 / me_range=24 / chroma_me=1 / trellis=2 / 8x8dct=0 / cqm=0 / deadzone=21,11 / fast_pskip=1 / chroma_qp_offset=-2 / threads=8 / lookahead_threads=1 / sliced_threads=0 / nr=0 / decimate=1 / interlaced=0 / bluray_compat=0 / stitchable=1 / constrained_intra=0 / bframes=2 / b_pyramid=0 / b_adapt=2 / b_bias=0 / direct=3 / weightb=1 / open_gop=0 / weightp=2 / keyint=250 / keyint_min=24 / scenecut=0 / intra_refresh=0 / rc_lookahead=48 / rc=2pass / mbtree=1 / bitrate=2260 / ratetol=1.0 / qcomp=0.50 / qpmin=6 / qpmax=51 / qpstep=4 / cplxblur=20.0 / qblur=0.5 / vbv_maxrate=3390 / vbv_bufsize=4520 / nal_hrd=vbr / filler=0 / ip_ratio=1.40 / aq=1:1.00 Default : Yes Forced : No Audio #1 ID : 2 Format : E-AC-3 Format/Info : Enhanced AC-3 Commercial name : Dolby Digital Plus Codec ID : A_EAC3 Duration : 15 min 54 s Bit rate mode : Constant Bit rate : 128 kb/s Channel(s) : 2 channels Channel layout : L R Sampling rate : 48.0 kHz Frame rate : 31.250 FPS (1536 SPF) Compression mode : Lossy Stream size : 14.6 MiB (5%) Title : French Language : French Service kind : Complete Main Default : Yes Forced : No Audio #2 ID : 3 Format : E-AC-3 Format/Info : Enhanced AC-3 Commercial name : Dolby Digital Plus Codec ID : A_EAC3 Duration : 15 min 54 s Bit rate mode : Constant Bit rate : 128 kb/s Channel(s) : 2 channels Channel layout : L R Sampling rate : 48.0 kHz Frame rate : 31.250 FPS (1536 SPF) Compression mode : Lossy Stream size : 14.6 MiB (5%) Title : Japanese Language : Japanese Service kind : Complete Main Default : No Forced : No Text ID : 4 Format : UTF-8 Codec ID : S_TEXT/UTF8 Codec ID/Info : UTF-8 Plain Text Duration : 14 min 51 s Bit rate : 34 b/s Count of elements : 112 Stream size : 3.78 KiB (0%) Title : French Language : French Default : No Forced : No PS2 : s’il vous plaît, pourriez-vous continuer à seeder pour que ce torrent puisse vivre. Merci. PS2: please, could you keep seeding in order for this torrent to live. Thank you.

File list

  • Scissor.Seven.S03.MULTi.1080p.NF.WEB-DL.DDP2.0.x264-Mr.Lahey
    • Scissor Seven S03E01 Farewell.mkv (268.4 MiB)
    • Scissor Seven S03E02 Dai Bo and Seven.mkv (338.9 MiB)
    • Scissor Seven S03E03 Excuse Me, Is This the Xuanwu Country.mkv (341.5 MiB)
    • Scissor Seven S03E04 Tenderness of a Tough Man.mkv (353.0 MiB)
    • Scissor Seven S03E05 Rock Hard Country.mkv (372.5 MiB)
    • Scissor Seven S03E06 Superpower Country.mkv (365.4 MiB)
    • Scissor Seven S03E07 Sneaking Into Xuanwu Country.mkv (321.9 MiB)
    • Scissor Seven S03E08 Master Green Phoenixs Scheme.mkv (323.6 MiB)
    • Scissor Seven S03E09 Memories That You Don't Want to Forget Even in Pain.mkv (376.1 MiB)
    • Scissor Seven S03E10 Who Is the One You Want to Protect.mkv (405.7 MiB)
Salut, merci pour le torrent. C'est dommage de ne pas avoir laissé la VO chinoise comme dans les deux premières saisons.