[neoHEVC] Horimiya [Season 1] [BD 1080p x265 HEVC AAC] [Dual Audio]

Category:
Date:
2021-10-03 10:36 UTC
Submitter:
Seeders:
6
Information:
Leechers:
0
File size:
3.3 GiB
Completed:
265
Info hash:
3ce6d63930acb1f7332a0309b72b15f922386419
![](https://i.imgur.com/RBlGp48.png) *Join **[Discord](https://discord.gg/47Q7FdB54e)** for Current Projects, Encode-Requests and Seed-Request in case of no available seeds.* **Horimiya [Season 1]** *with `Dual Audio (Jpn/Eng)` and `Eng Subs` in `BD 1080p HEVC`* Encode of [BDMVs] (BDMV x264 AVC FLAC) to (x265 HEVC AAC) with added English audio tracks from [Golumpa] and English subtitles from [GSK]. *Work done on subtitles: Retiming for BD mid-episode eyecatches. Added additional Part A/B chapters for these eyecatches and adjusted all chapter timings for BD.* *Side Note: Same with subtitles and the BD mid-episode eyecatches, I cut up the audio accordingly to bring everything back into sync. Please report out of sync issues.* ![](https://i.imgur.com/4iegWLL.png) **[Trailer](https://www.youtube.com/watch?v=CNs2IZQZcyI)** ![](https://i.imgur.com/3UxGuWB.png) ![](https://i.imgur.com/ZCtSawZ.png) **[MyAnimeList](https://myanimelist.net/anime/42897/Horimiya)** --- **Synopsis** On the surface, the thought of Kyouko Hori and Izumi Miyamura getting along would be the last thing in people's minds. After all, Hori has a perfect combination of beauty and brains, while Miyamura appears meek and distant to his fellow classmates. However, a fateful meeting between the two lays both of their hidden selves bare. Even though she is popular at school, Hori has little time to socialize with her friends due to housework. On the other hand, Miyamura lives under the noses of his peers, his body bearing secret tattoos and piercings that make him look like a gentle delinquent. Having opposite personalities yet sharing odd similarities, the two quickly become friends and often spend time together in Hori's home. As they both emerge from their shells, they share with each other a side of themselves concealed from the outside world. ![](https://i.imgur.com/cwkKiBE.png) --- **Language Options** I included two simple scripts that you can apply to these files to do the following (Windows only): 1. Change [Default Tracks]: Switches default tracks to *A:Japanese S:Dialog* 2. Make [Single Audio]: Throws out *English audio* and *Signs&Songs subtitles* tracks To apply these put all the video files into the *Language Options* folder and run the .bat file. --- **Comparison** *Open links, toggle with mouseclick and check title.* [![](https://i.imgur.com/iIB5IFd.png)](https://slow.pics/c/i4sFAdny) [![](https://i.imgur.com/xSaj8HQ.png)](https://slow.pics/c/iI4aExYH) [![](https://i.imgur.com/fr3Huis.png)](https://slow.pics/c/II21fJDA) --- **Source** ๐Ÿ—ƒ๏ธ Video and JPN Audio: **[[BDMVs]](https://nyaa.si/view/1438730)** ๐Ÿ—ƒ๏ธ ENG Audio: **[[Golumpa]](https://nyaa.si/view/1338833)** ๐Ÿ—ƒ๏ธ Subtitles: **[[GSK]](https://nyaa.si/view/1331195)** ๐Ÿ’ฌ *Subtitles Info: [GSK] - Format `ASS`* --- **Media Info** ๐Ÿ†” [Full Mediainfo incl. Encoder Settings](https://pastebin.com/iNWinrU1) ``` General General Unique ID : 150898401693395466455679883932812255898 (0x7185F99C199FB0C6A62D0A3D24C1229A) Complete name : Horimiya - S01E01.mkv Format : Matroska Format version : Version 4 File size : 265 MiB Duration : 23 min 52 s Overall bit rate : 1 552 kb/s Movie name : Horimiya - S01E01 Encoded date : UTC 2021-10-03 10:09:32 Writing application : mkvmerge v57.0.0 ('Till The End') 64-bit Writing library : libebml v1.4.2 + libmatroska v1.6.4 / Lavf58.76.100 Attachments : Brianne_s_hand.ttf / BubbbleGum.otf / DK Cool Crayon.ttf / Finnegan_LT_W04_Bold.ttf / Finnegan_LT_W04_Bold_Italic.ttf / Reef.otf / AlteHaasGroteskBold.ttf / AmmanV3Sans-Medium.otf / ANNA_.ttf / bip.ttf / BPreplay-Bold.ttf Video ID : 1 Format : HEVC Format/Info : High Efficiency Video Coding Format profile : Main 10@L4.1@High Codec ID : V_MPEGH/ISO/HEVC Duration : 23 min 45 s Bit rate : 1 263 kb/s Width : 1 920 pixels Height : 1 080 pixels Display aspect ratio : 16:9 Frame rate mode : Constant Frame rate : 23.976 (24000/1001) FPS Color space : YUV Chroma subsampling : 4:2:0 Bit depth : 10 bits Bits/(Pixel*Frame) : 0.025 Stream size : 215 MiB (81%) Writing library : x265 3.5+1-f0c1022b6:[Windows][GCC 9.2.0][64 bit] 10bit Encoding settings : <Check Link Above> Default : Yes Forced : No Color range : Limited Color primaries : BT.709 Transfer characteristics : BT.709 Matrix coefficients : BT.709 Audio #1 ID : 2 Format : AAC LC Format/Info : Advanced Audio Codec Low Complexity Codec ID : A_AAC-2 Duration : 23 min 52 s Bit rate : 127 kb/s Channel(s) : 2 channels Channel layout : L R Sampling rate : 48.0 kHz Frame rate : 46.875 FPS (1024 SPF) Compression mode : Lossy Stream size : 21.8 MiB (8%) Title : Stereo - ENG (AAC) Language : English Default : Yes Forced : No Audio #2 ID : 3 Format : AAC LC Format/Info : Advanced Audio Codec Low Complexity Codec ID : A_AAC-2 Duration : 23 min 45 s Bit rate : 120 kb/s Channel(s) : 2 channels Channel layout : L R Sampling rate : 48.0 kHz Frame rate : 46.875 FPS (1024 SPF) Compression mode : Lossy Stream size : 20.4 MiB (8%) Title : Stereo - JPN (AAC) Language : Japanese Default : No Forced : No Text #1 ID : 4 Format : ASS Codec ID : S_TEXT/ASS Codec ID/Info : Advanced Sub Station Alpha Duration : 20 min 12 s Bit rate : 16.3 kb/s Count of elements : 14975 Compression mode : Lossless Stream size : 2.36 MiB (1%) Title : Signs & Songs - ENG (ASS) Language : English Default : Yes Forced : No Text #2 ID : 5 Format : ASS Codec ID : S_TEXT/ASS Codec ID/Info : Advanced Sub Station Alpha Duration : 23 min 41 s Bit rate : 14.1 kb/s Count of elements : 15487 Compression mode : Lossless Stream size : 2.39 MiB (1%) Title : Dialogue - ENG (ASS) Language : English Default : No Forced : No Menu 00:00:00.000 : Intro 00:03:27.999 : Opening 00:04:58.048 : Part A 00:13:26.097 : Part B 00:21:47.097 : Ending 00:23:16.937 : Epilogue ```

File list

  • [neoHEVC] Horimiya [Season 1] [BD 1080p x265 HEVC AAC] [Dual Audio]
    • Language Options
      • 1. Change [Default Tracks].bat (162 Bytes)
      • 2. Make [Single Audio] Japanese.bat (166 Bytes)
      • mkvmerge.exe (9.6 MiB)
      • readme.txt (411 Bytes)
    • Horimiya - S01E01.mkv (265.0 MiB)
    • Horimiya - S01E02.mkv (239.9 MiB)
    • Horimiya - S01E03.mkv (260.5 MiB)
    • Horimiya - S01E04.mkv (224.8 MiB)
    • Horimiya - S01E05.mkv (231.3 MiB)
    • Horimiya - S01E06.mkv (277.8 MiB)
    • Horimiya - S01E07.mkv (251.8 MiB)
    • Horimiya - S01E08.mkv (252.2 MiB)
    • Horimiya - S01E09.mkv (262.3 MiB)
    • Horimiya - S01E10.mkv (254.4 MiB)
    • Horimiya - S01E11.mkv (282.1 MiB)
    • Horimiya - S01E12.mkv (276.3 MiB)
    • Horimiya - S01E13.mkv (329.0 MiB)
Came for the art...slightly disappointed. Still, thanks for the torrent!
Meh guess you didn't spend 12 hours for the description

neoborn (uploader)

User
Have many things going on and life has become busy lately ๏ผผ(ยบ โ–ก ยบ l|l)/ I have two lying around waiting either for [GJM] to finish their kaguya project or me finishing my biyori project. Until then these small ones have to suffice :>
thx for the upload
Thnxs for ur legendary work!
Awesome show, thanks for retiming for the BD
Thanks neo! Looking forward to your releases!