[neoHEVC] Wonder Egg Priority [Season 1 + Special] [BD 1080p x265 HEVC AAC] [Dual Audio]

Category:
Date:
2021-09-26 11:56 UTC
Submitter:
Seeders:
12
Information:
Leechers:
1
File size:
4.1 GiB
Completed:
1319
Info hash:
d410f265ff217f2283ea2f3d26e77f9e144ef747
![](https://i.imgur.com/RBlGp48.png) *Join **[Discord](https://discord.gg/47Q7FdB54e)** for Current Projects, Encode-Requests and Seed-Request in case of no available seeds.* **Wonder Egg Priority [Season 1 + Special]** *with `Dual Audio (Jpn/Eng)` and `Eng Subs` in `BD 1080p HEVC`* Reencode of [S3rNx] (x264 AVC FLAC) to (x265 HEVC AAC) with added English audio tracks from [Golumpa] and English subtitles from [badcvxy] and [Nyanpasu]. *Work done on subtitles:* *- EP 1-7 + 9-12 from [badcvxy] with inserted Endings from [Nyanpasu]. Inserted missing [badcvxy] Opening into EP 2.* *- EP 8 is [Nyanpasu]* *- EP 13 from [Nyanpasu] with inserted Opening from [badcvxy] and same dialog font style as the rest of the series for consistency (style of [badcvxy]).* *Side Note:* *Audio tracks had to be cut and shifted during the episodes due to differences in WEB and BD. In case you spot anything fishy, please report in comments or discord. All chapters harmonised and shifted to accomodate new BD timing.* ![](https://i.imgur.com/4iegWLL.png) **[Trailer](https://www.youtube.com/watch?v=zJ4yP7Icclc)** ![](https://i.imgur.com/3UxGuWB.png) ![](https://i.imgur.com/ZCtSawZ.png) **[MyAnimeList](https://myanimelist.net/anime/43299/Wonder_Egg_Priority)** --- **Patches** Episode 13 subtitles are out of sync. Episode 13 subfix patch *(or mux the subtitles in the included 'MUX' folder yourself)*. *Extract -> Copy Special EP 13 into the folder and run the script depending on your OS (3.Apply Patch-Windows.bat for Windows)* ๐Ÿ”— **[Episode 13 Subfix (xDelta-Patch)](https://drive.google.com/file/d/1pCCZHIM3yG3oQtZKrYYRIdbubk0vsKXb/view?usp=sharing)** --- **Synopsis** Following the suicide of her best and only friend, Koito Nagase, Ai Ooto is left grappling with her new reality. With nothing left to live for, she follows the instructions of a mysterious entity and gets roped into purchasing an egg, or specifically, a Wonder Egg. Upon breaking the egg in a world that materializes during her sleep, Ai is tasked with saving people from the adversities that come their way. In doing so, she believes that she has moved one step closer to saving her best friend. With this dangerous yet tempting opportunity in the palms of her hands, Ai enters a place where she must recognize the relationship between other people's demons and her own. As past trauma, unforgettable regrets, and innate fears hatch in the bizarre world of Wonder Egg Priority, a young girl discovers the different inner struggles tormenting humankind and rescues them from their worst fears. ![](https://i.imgur.com/swkvw2L.png) --- **Language Options** I included two simple scripts that you can apply to these files to do the following (Windows only): 1. Change [Default Tracks]: Switches default tracks to *A:Japanese S:Dialog* 2. Make [Single Audio]: Throws out *English audio* and *Signs&Songs subtitles* tracks To apply these put all the video files into the *Language Options* folder and run the .bat file. --- **Comparison** *Open links, toggle with mouseclick and check title.* [![](https://i.imgur.com/fPzH2ls.png)](https://slow.pics/c/cuvLQP3t) [![](https://i.imgur.com/Az2GQIA.png)](https://slow.pics/c/k7MbRULI) [![](https://i.imgur.com/wHtTFkG.png)](https://slow.pics/c/ynSl9AEC) --- **Source** ๐Ÿ—ƒ๏ธ Video and JPN Audio: **[[S3rNx]](https://nyaa.si/view/1381752)** ๐Ÿ—ƒ๏ธ ENG Audio: **[[Golumpa]](https://nyaa.si/view/1365620)** ๐Ÿ—ƒ๏ธ Subtitles: **[[badcvxy]](https://nyaa.si/view/1327772) [[Nyanpasu]](https://nyaa.si/view/1428208)** ๐Ÿ’ฌ *Subtitles Info: [badcvxy] [Nyanpasu] - Format `ASS`* --- **Media Info** ๐Ÿ†” [Full Mediainfo incl. Encoder Settings](https://pastebin.com/vaXWmRfJ) ``` General Unique ID : 121318297536489552463102885173923218735 (0x5B450DE03B6BE576CCDDE2479435052F) Complete name : Wonder Egg Priority - S01E01.mkv Format : Matroska Format version : Version 4 File size : 274 MiB Duration : 23 min 2 s Overall bit rate : 1 662 kb/s Movie name : Wonder Egg Priority - S01E01 Encoded date : UTC 2021-09-26 11:43:58 Writing application : mkvmerge v57.0.0 ('Till The End') 64-bit Writing library : libebml v1.4.2 + libmatroska v1.6.4 / Lavf58.29.100 Attachments : KozGoPr6N-Heavy.otf / LEXIA.otf / arialbd.ttf / Corinthian Medium.ttf / Falena-Heavy.ttf / IWAOMINPRO-FATE-BD.TTF / tt0524m.ttf / Bloodyslime.TTF / MyriadPro-Bold.otf Video ID : 1 Format : HEVC Format/Info : High Efficiency Video Coding Format profile : Main 10@L4.1@High Codec ID : V_MPEGH/ISO/HEVC Duration : 22 min 53 s Bit rate : 1 301 kb/s Width : 1 920 pixels Height : 1 080 pixels Display aspect ratio : 16:9 Frame rate mode : Constant Frame rate : 23.976 (24000/1001) FPS Color space : YUV Chroma subsampling : 4:2:0 Bit depth : 10 bits Bits/(Pixel*Frame) : 0.026 Stream size : 213 MiB (78%) Writing library : x265 3.2.1+1-b5c86a64bbbe:[Windows][GCC 9.2.0][64 bit] 10bit Encoding settings : <Check Link Above> Default : Yes Forced : No Color range : Limited Color primaries : BT.709 Transfer characteristics : BT.709 Matrix coefficients : BT.709 Audio #1 ID : 2 Format : AAC LC Format/Info : Advanced Audio Codec Low Complexity Codec ID : A_AAC-2 Duration : 23 min 2 s Bit rate : 192 kb/s Channel(s) : 2 channels Channel layout : L R Sampling rate : 48.0 kHz Frame rate : 46.875 FPS (1024 SPF) Compression mode : Lossy Stream size : 31.4 MiB (11%) Title : Stereo - ENG (AAC) Language : English Default : Yes Forced : No Audio #2 ID : 3 Format : AAC LC Format/Info : Advanced Audio Codec Low Complexity Codec ID : A_AAC-2 Duration : 22 min 53 s Bit rate : 132 kb/s Channel(s) : 2 channels Channel layout : L R Sampling rate : 48.0 kHz Frame rate : 46.875 FPS (1024 SPF) Compression mode : Lossy Stream size : 21.2 MiB (8%) Title : Stereo - JPN (AAC) Language : Japanese Default : No Forced : No Text #1 ID : 4 Format : ASS Codec ID : S_TEXT/ASS Codec ID/Info : Advanced Sub Station Alpha Duration : 20 min 42 s Bit rate : 557 b/s Count of elements : 408 Compression mode : Lossless Stream size : 84.6 KiB (0%) Title : Signs & Songs - ENG (ASS) Language : English Default : Yes Forced : No Text #2 ID : 5 Format : ASS Codec ID : S_TEXT/ASS Codec ID/Info : Advanced Sub Station Alpha Duration : 21 min 49 s Bit rate : 602 b/s Count of elements : 674 Compression mode : Lossless Stream size : 96.2 KiB (0%) Title : Dialogue - ENG (ASS) Language : English Default : No Forced : No Menu 00:00:00.000 : Intro 00:02:09.463 : Episode 00:22:46.949 : Preview ```

File list

  • [neoHEVC] Wonder Egg Priority [BD 1080p x265 HEVC AAC] [Dual Audio]
    • Language Options
      • 1. Change [Default Tracks].bat (162 Bytes)
      • 2. Make [Single Audio] Japanese.bat (166 Bytes)
      • mkvmerge.exe (9.6 MiB)
      • readme.txt (411 Bytes)
    • Season 1
      • Wonder Egg Priority - S01E01.mkv (273.9 MiB)
      • Wonder Egg Priority - S01E02.mkv (322.2 MiB)
      • Wonder Egg Priority - S01E03.mkv (310.6 MiB)
      • Wonder Egg Priority - S01E04.mkv (313.0 MiB)
      • Wonder Egg Priority - S01E05.mkv (317.8 MiB)
      • Wonder Egg Priority - S01E06.mkv (307.4 MiB)
      • Wonder Egg Priority - S01E07.mkv (294.7 MiB)
      • Wonder Egg Priority - S01E08.mkv (334.8 MiB)
      • Wonder Egg Priority - S01E09.mkv (290.2 MiB)
      • Wonder Egg Priority - S01E10.mkv (260.8 MiB)
      • Wonder Egg Priority - S01E11.mkv (258.9 MiB)
      • Wonder Egg Priority - S01E12.mkv (299.1 MiB)
    • Specials
      • Wonder Egg Priority - S00E01 - (E13 Special Tokubetsu-hen).mkv (578.8 MiB)
thank you so much deym your encode is sharp <3
๐Ÿ’•ArigAto๐Ÿ’•gozAimAsu๐Ÿ’• ![ArigAto](https://i.imgur.com/E9U7A6P.png)
Isn't the whole [insert group name] against scene policy or am I thinking of something else
Thank you so much for uploading the English Dubbed version of all the anime episodes! Overall quality is fantastic as always!!! You're the best!!!
Subs for the special are mistimed

neoborn (uploader)

User
**@mw420blazeit** Thanks for reporting, added a patch in the description.
I know this is almost a year old now, but the subtitles in the intro of E01 seem to be mistimed (though it doesn't seem to be an issue afterwards). I don't expect you to upload a patch but I felt like pointing it out either way just so people know it's not a problem on their side (sorry if this is somehow a mistake on my end, I tried multiple media players and two separate downloads).