Great Teacher Onizuka / GTO 1998 S01 + Special 1080p ABEMA WEB-DL AAC x264-NSBC

Category:
Date:
2021-09-25 10:45 UTC
Submitter:
Seeders:
8
Information:
uppi
Leechers:
5
File size:
19.8 GiB
Completed:
173
Info hash:
0f03ecaef2896639f9a7fde1a16f657c7c4cdb99
# GTO 1998 ![alt text](https://www.themoviedb.org/t/p/w780/9sYsiDNjgQetinw4Qr6Yhr5FYtM.jpg "Title GTO") >The drama series is based on the manga and anime of the same name, both created by Fujisawa Tohru. The story is a sequel of lesser known series Shounan Jun'ai-gumi (Shounan Love Gang) where Onizuka Eikichi's rogue high school days are depicted. Sorimachi Takashi plays Onizuka Eikichi, a graduate of a third-rate University and the leader of a motorcycle gang, whose lifelong dream is to become a teacher. After being hired by a seemingly eccentric director, Onizuka begins his unconventional way of teaching a hopeless group of troublemakers. Although he meets much opposition from the students and teachers themselves, his passion for teaching, and more importantly, his students, eventually convinces everyone that Onizuka truly has the makings of a great teacher. ![alt text](https://i.ibb.co/R2CsjLM/c9howu3df1rz.jpg "Title GTO") ![alt text](https://i.ibb.co/z8hTMLJ/mava1rh21ikf.jpg "Title GTO" ) ![alt text](https://i.ibb.co/GsJdsfs/4505tc4sv4dh.jpg "Title GTO") ![alt text](https://i.ibb.co/WD7v4L6/kt1xpuefnbtg.jpg "Title GTO") ![alt text](https://i.ibb.co/wMkLmBb/dtdkjd8u842h.jpg "Title GTO") ![alt text](https://i.ibb.co/ZTzmDTC/awfzy969yp3f.jpg "Title GTO") ![alt text](https://i.ibb.co/4gZwvdL/ad9zxr5ijmgo.jpg "Title GTO") ![alt text](https://i.ibb.co/sQ8yppX/5bfgbshms4x6.jpg "Title GTO") ![alt text](https://i.ibb.co/MnN614H/50101sjtf1og.jpg "Title GTO") ![alt text](https://i.ibb.co/8639TQP/m3dqaaictbt7.jpg "Title GTO") ![alt text](https://i.ibb.co/VvbcCZX/c7dtykujjvoj.jpg "Title GTO") >General Unique ID : 324868276313421912858114780376477147221 (0xF4675AA87BAE96D495997B237B432055) Complete name : Great Teacher Onizuka 1998 S01E01 1080p ABEMA WEB-DL AAC x264-NSBC.mkv Format : Matroska Format version : Version 4 File size : 1.67 GiB Duration : 57 min 4 s Overall bit rate : 4 197 kb/s Movie name : Great Teacher Onizuka 1998 S01E01 1080p ABEMA WEB-DL AAC x264-NSBC / Great Teacher Onizuka 1998 S01E01 1080p ABEMA WEB-DL AAC x264-NSBC Encoded by : NoNe | NSBC Encoded date : UTC 2021-07-03 13:56:24 Writing application : mkvmerge v29.0.0 ('Like It Or Not') 64-bit Writing library : libebml v1.3.6 + libmatroska v1.4.9 Copyright : NSBC Comment : NoNe | NSBC NOTICE ME : SENPAI WEBSITE : NSBC.to Video ID : 1 Format : AVC Format/Info : Advanced Video Codec Format profile : Main@L3.1 Format settings : CABAC / 4 Ref Frames Format settings, CABAC : Yes Format settings, ReFrames : 4 frames Codec ID : V_MPEG4/ISO/AVC Duration : 57 min 4 s Bit rate : 4 000 kb/s Width : 1 920 pixels Height : 1 080 pixels Display aspect ratio : 16:9 Frame rate mode : Constant Frame rate : 29.970 (30000/1001) FPS Color space : YUV Chroma subsampling : 4:2:0 Bit depth : 8 bits Scan type : Progressive Bits/(Pixel*Frame) : 0.064 Stream size : 1.59 GiB (95%) Title : [NSBC] Writing library : x264 core 148 r265 3b70645 Encoding settings : cabac=1 / ref=2 / deblock=1:0:0 / analyse=0x1:0x111 / me=hex / subme=7 / psy=1 / psy_rd=1.00:0.00 / mixed_ref=1 / me_range=16 / chroma_me=1 / trellis=1 / 8x8dct=0 / cqm=0 / deadzone=21,11 / fast_pskip=1 / chroma_qp_offset=-2 / threads=9 / lookahead_threads=1 / sliced_threads=0 / nr=0 / decimate=1 / interlaced=0 / bluray_compat=0 / constrained_intra=0 / bframes=3 / b_pyramid=2 / b_adapt=1 / b_bias=0 / direct=1 / weightb=1 / open_gop=0 / weightp=2 / keyint=1000 / keyint_min=501 / scenecut=0 / intra_refresh=0 / rc_lookahead=40 / rc=2pass / mbtree=1 / bitrate=4000 / ratetol=1.0 / qcomp=0.60 / qpmin=0 / qpmax=69 / qpstep=4 / cplxblur=20.0 / qblur=0.5 / ip_ratio=1.40 / aq=1:1.00 Default : Yes Forced : No Audio ID : 2 Format : AAC LC Format/Info : Advanced Audio Codec Low Complexity Codec ID : A_AAC-2 Duration : 57 min 4 s Bit rate : 192 kb/s Channel(s) : 2 channels Channel layout : L R Sampling rate : 44.1 kHz Frame rate : 43.066 FPS (1024 SPF) Compression mode : Lossy Delay relative to video : -23 ms Stream size : 79.3 MiB (5%) Title : [NSBC] Language : Japanese Default : Yes Forced : No

File list

  • Great Teacher Onizuka 1998 S01 1080p ABEMA WEB-DL AAC x264-NSBC
    • GTO 1999 Special (1080P WEBRip AAC H265).mp4 (3.0 GiB)
    • GTO 1999 Special (1080P WEBRip AAC H265).srt (104.1 KiB)
    • Great Teacher Onizuka 1998 S01E01 1080p ABEMA WEB-DL AAC x264-NSBC.mkv (1.7 GiB)
    • Great Teacher Onizuka 1998 S01E01 1080p ABEMA WEB-DL AAC x264-NSBC.srt (57.9 KiB)
    • Great Teacher Onizuka 1998 S01E02 1080p ABEMA WEB-DL AAC x264-NSBC.mkv (1.3 GiB)
    • Great Teacher Onizuka 1998 S01E02 1080p ABEMA WEB-DL AAC x264-NSBC.srt (47.9 KiB)
    • Great Teacher Onizuka 1998 S01E03 1080p ABEMA WEB-DL AAC x264-NSBC.mkv (1.3 GiB)
    • Great Teacher Onizuka 1998 S01E03 1080p ABEMA WEB-DL AAC x264-NSBC.srt (51.1 KiB)
    • Great Teacher Onizuka 1998 S01E04 1080p ABEMA WEB-DL AAC x264-NSBC.mkv (1.3 GiB)
    • Great Teacher Onizuka 1998 S01E04 1080p ABEMA WEB-DL AAC x264-NSBC.srt (54.7 KiB)
    • Great Teacher Onizuka 1998 S01E05 1080p ABEMA WEB-DL AAC x264-NSBC.mkv (1.3 GiB)
    • Great Teacher Onizuka 1998 S01E05 1080p ABEMA WEB-DL AAC x264-NSBC.srt (46.1 KiB)
    • Great Teacher Onizuka 1998 S01E06 1080p ABEMA WEB-DL AAC x264-NSBC.mkv (1.3 GiB)
    • Great Teacher Onizuka 1998 S01E06 1080p ABEMA WEB-DL AAC x264-NSBC.srt (50.9 KiB)
    • Great Teacher Onizuka 1998 S01E07 1080p ABEMA WEB-DL AAC x264-NSBC.mkv (1.3 GiB)
    • Great Teacher Onizuka 1998 S01E07 1080p ABEMA WEB-DL AAC x264-NSBC.srt (47.4 KiB)
    • Great Teacher Onizuka 1998 S01E08 1080p ABEMA WEB-DL AAC x264-NSBC.mkv (1.4 GiB)
    • Great Teacher Onizuka 1998 S01E08 1080p ABEMA WEB-DL AAC x264-NSBC.srt (54.3 KiB)
    • Great Teacher Onizuka 1998 S01E09 1080p ABEMA WEB-DL AAC x264-NSBC.mkv (1.3 GiB)
    • Great Teacher Onizuka 1998 S01E09 1080p ABEMA WEB-DL AAC x264-NSBC.srt (44.5 KiB)
    • Great Teacher Onizuka 1998 S01E10 1080p ABEMA WEB-DL AAC x264-NSBC.mkv (1.4 GiB)
    • Great Teacher Onizuka 1998 S01E10 1080p ABEMA WEB-DL AAC x264-NSBC.srt (45.8 KiB)
    • Great Teacher Onizuka 1998 S01E11 1080p ABEMA WEB-DL AAC x264-NSBC.mkv (1.3 GiB)
    • Great Teacher Onizuka 1998 S01E11 1080p ABEMA WEB-DL AAC x264-NSBC.srt (50.4 KiB)
    • Great Teacher Onizuka 1998 S01E12 1080p ABEMA WEB-DL AAC x264-NSBC.mkv (1.6 GiB)
    • Great Teacher Onizuka 1998 S01E12 1080p ABEMA WEB-DL AAC x264-NSBC.srt (46.5 KiB)
can i request for smaller version of this? like x265 hevc encode. i would love to download smaller version.
NICE !!! thanks !!

Kripash (uploader)

User
@abu_sayyaf74 This is not mine. I picked it up from a private tracker.
@Kripash ok thanks.