( Dragontime ) My Hero Academia S05E22 1080p WEB-DL AAC 2.0 H.264 DUAL AUDIO

Category:
Date:
2021-09-24 06:39 UTC
Submitter:
Seeders:
4
Information:
No information.
Leechers:
0
File size:
1.1 GiB
Completed:
248
Info hash:
af43b2099fda9e91f370a99ca42a9ffc0619a612
Format : Matroska Format version : Version 4 / Version 2 File size : 1.06 GiB Duration : 23 min 58 s Overall bit rate : 6 316 kb/s Encoded date : UTC 2021-09-24 05:25:31 Writing application : mkvmerge v61.0.0 ('So') 64-bit Writing library : libebml v1.4.2 + libmatroska v1.6.4 Cover : Yes Attachments : cover.png / cover.png Video ID : 1 Format : AVC Format/Info : Advanced Video Codec Format profile : High@L4 Format settings, CABAC : Yes Format settings, ReFrames : 3 frames Codec ID : V_MPEG4/ISO/AVC Duration : 23 min 58 s Bit rate : 5 782 kb/s Width : 1 920 pixels Height : 1 080 pixels Display aspect ratio : 16:9 Frame rate mode : Constant Frame rate : 23.976 (24000/1001) FPS Color space : YUV Chroma subsampling : 4:2:0 Bit depth : 8 bits Scan type : Progressive Bits/(Pixel*Frame) : 0.116 Stream size : 992 MiB (92%) Language : English Default : Yes Forced : No Color range : Limited Matrix coefficients : BT.709 Audio #1 ID : 2 Format : AAC Format/Info : Advanced Audio Codec Format profile : LC Codec ID : A_AAC Duration : 23 min 58 s Bit rate : 256 kb/s Channel(s) : 2 channels Channel positions : Front: L R Sampling rate : 48.0 kHz Frame rate : 46.875 FPS (1024 spf) Compression mode : Lossy Stream size : 43.9 MiB (4%) Language : English Default : Yes Forced : No Audio #2 ID : 3 Format : AAC Format/Info : Advanced Audio Codec Format profile : LC Codec ID : A_AAC Duration : 23 min 58 s Bit rate : 256 kb/s Channel(s) : 2 channels Channel positions : Front: L R Sampling rate : 48.0 kHz Frame rate : 46.875 FPS (1024 spf) Compression mode : Lossy Stream size : 43.9 MiB (4%) Language : Japanese Default : Yes Forced : No

File list

  • My Hero Academia S05E22 Sad Man's Parade.mkv (1.1 GiB)