[MagicStar] Douse Mou Nigerarenai EP01 [WEBDL] [1080p] [AMZN] [JPN_SUB]

Category:
Date:
2021-09-17 16:44 UTC
Submitter:
Seeders:
5
Information:
Leechers:
3
File size:
835.0 MiB
Completed:
481
Info hash:
a992e265960b536d0f5d8253b34362b53f2493af
HD 1080p from Prime Video. Japanese subtitles added. ![alt text](https://i.ibb.co/thWkJMm/81-CGZ4-KMp-OL.jpg) ![alt text](https://i.ibb.co/8rdkD6c/Douse-Mou-Nigerarenai-EP01-1080p-AMZN-WEB-DL-DDP2-0-H-264-Magic-Star-mkv.jpg) ``` General Unique ID : 169249521303232746804641077047786315604 (0x7F5445A955FAC533AC7EFE78DF459F54) Complete name : Douse.Mou.Nigerarenai.EP01.1080p.AMZN.WEB-DL.DDP2.0.H.264-MagicStar.mkv Format : Matroska Format version : Version 4 File size : 835 MiB Duration : 24 min 6 s Overall bit rate : 4 844 kb/s Encoded date : UTC 2021-09-17 13:20:18 Writing application : mkvmerge v50.0.0 ('Awakenings') 64-bit Writing library : libebml v1.4.0 + libmatroska v1.6.2 Cover : Yes Attachments : cover.png Video ID : 1 Format : AVC Format/Info : Advanced Video Codec Format profile : High@L4 Format settings : CABAC / 4 Ref Frames Format settings, CABAC : Yes Format settings, Reference fra : 4 frames Codec ID : V_MPEG4/ISO/AVC Duration : 24 min 5 s Bit rate : 4 563 kb/s Width : 1 920 pixels Height : 1 080 pixels Display aspect ratio : 16:9 Frame rate mode : Constant Frame rate : 29.970 (29970/1000) FPS Original frame rate : 29.970 (30000/1001) FPS Color space : YUV Chroma subsampling : 4:2:0 Bit depth : 8 bits Scan type : Progressive Bits/(Pixel*Frame) : 0.073 Stream size : 786 MiB (94%) Default : Yes Forced : No Color range : Limited Color primaries : BT.709 Transfer characteristics : BT.709 Matrix coefficients : BT.709 Audio ID : 2 Format : E-AC-3 Format/Info : Enhanced AC-3 Commercial name : Dolby Digital Plus Codec ID : A_EAC3 Duration : 24 min 6 s Bit rate mode : Constant Bit rate : 224 kb/s Channel(s) : 2 channels Channel layout : L R Sampling rate : 48.0 kHz Frame rate : 31.250 FPS (1536 SPF) Compression mode : Lossy Stream size : 38.6 MiB (5%) Language : Japanese Service kind : Complete Main Default : Yes Forced : No ```

File list

Thank you so much. It will be pleasure from now on.