[MagicStar] Hakozume ~Tatakau! Kouban Joshi~ EP09 END [WEBDL] [1080p] [HULU] [JPN_SUB]

Category:
Date:
2021-09-16 14:58 UTC
Submitter:
Seeders:
17
Information:
Leechers:
2
File size:
1.7 GiB
Completed:
1689
Info hash:
232e91536659928fb17bc2c7f4b7c84b694b96b9
HD 1080p from HULU JAPAN. ![alt text](https://i.ibb.co/Sxnr7Sm/5815540e-edda-4a29-adce-e0760a0a4e3a.jpg) ![alt text](https://i.ibb.co/KWsrd14/Hakozume-Tatakau-Kouban-Joshi-EP09-1080p-HULU-WEB-DL-AAC2-0-H-264-Magic-Star-mkv.jpg) ``` General Unique ID : 260460193318612934877927107275595265828 (0xC3F2CEFE017A40EA07455815B7DD3724) Complete name : Hakozume.Tatakau.Kouban.Joshi.EP09.1080p.HULU.WEB-DL.AAC2.0.H.264-MagicStar.mkv Format : Matroska Format version : Version 4 File size : 1.68 GiB Duration : 59 min 10 s Overall bit rate : 4 065 kb/s Encoded date : UTC 2021-09-16 07:34:19 Writing application : mkvmerge v50.0.0 ('Awakenings') 64-bit Writing library : libebml v1.4.0 + libmatroska v1.6.2 Cover : Yes Attachments : cover.png Video ID : 1 Format : AVC Format/Info : Advanced Video Codec Format profile : High@L4 Format settings : CABAC / 4 Ref Frames Format settings, CABAC : Yes Format settings, Reference fra : 4 frames Codec ID : V_MPEG4/ISO/AVC Duration : 59 min 10 s Bit rate : 3 937 kb/s Width : 1 920 pixels Height : 1 080 pixels Display aspect ratio : 16:9 Frame rate mode : Constant Frame rate : 29.970 (29970/1000) FPS Original frame rate : 29.970 (30000/1001) FPS Color space : YUV Chroma subsampling : 4:2:0 Bit depth : 8 bits Scan type : Progressive Bits/(Pixel*Frame) : 0.063 Stream size : 1.63 GiB (97%) Default : Yes Forced : No Color range : Limited Color primaries : BT.709 Transfer characteristics : BT.709 Matrix coefficients : BT.709 Audio ID : 2 Format : AAC LC Format/Info : Advanced Audio Codec Low Complexity Codec ID : A_AAC-2 Duration : 59 min 10 s Bit rate : 125 kb/s Channel(s) : 2 channels Channel layout : L R Sampling rate : 48.0 kHz Frame rate : 46.875 FPS (1024 SPF) Compression mode : Lossy Stream size : 53.1 MiB (3%) Language : Japanese Default : Yes Forced : No ```

File list

Thanks a lot for sharing the whole show! And again asking for their special interviews please? xD https://www.hulu.jp/watch/100091010
Thank you so much. It will be pleasure from now on.