【UNARCHIVED KARAOKE】【NIJISANJI EN - Pomu Rainpuff】for practice for friday!!! [2021-09-15] - x8NbVNeZFxM

Category:
Date:
2021-09-14 17:07 UTC
Submitter:
Seeders:
4
Information:
Leechers:
1
File size:
3.5 GiB
Completed:
24
Info hash:
145c7daf2b07e4ea9b85fa4f9f4705609f8a0753
![Thumbnail](https://i.ibb.co/VjTCQWk/UNARCHIVED-KARAOKE-NIJISANJI-EN-Pomu-Rainpuff-for-practice-for-friday-2021-09-15-x8-Nb-VNe-ZFx-M.jpg) Format : MPEG-4 >Format profile : Base Media Codec ID : isom (isom/iso2/avc1/mp41) File size : 3.44 GiB Duration : 1 h 48 min Overall bit rate : 4 542 kb/s Writing application : Lavf59.4.102 Video >ID : 1 Format : AVC Format/Info : Advanced Video Codec Format profile : Main@L4.2 Format settings : CABAC / 1 Ref Frames Format settings, CABAC : Yes Format settings, Reference : 1 frame Format settings, GOP : M=1, N=60 Codec ID : avc1 Codec ID/Info : Advanced Video Coding Duration : 1 h 48 min Bit rate : 4 402 kb/s Width : 1 920 pixels Height : 1 080 pixels Display aspect ratio : 16:9 Frame rate mode : Variable Frame rate : 60.000 FPS Minimum frame rate : 58.824 FPS Maximum frame rate : 62.500 FPS Color space : YUV Chroma subsampling : 4:2:0 Bit depth : 8 bits Scan type : Progressive Bits/(Pixel*Frame) : 0.035 Stream size : 3.33 GiB (97%) Title : ISO Media file produced by Google Inc. Created on: 09/14/2021. Color range : Limited Color primaries : BT.709 Transfer characteristics : BT.709 Matrix coefficients : BT.709 Codec configuration box : avcC Audio >ID : 2 Format : AAC LC Format/Info : Advanced Audio Codec Low Complexity Codec ID : mp4a-40-2 Duration : 1 h 48 min Bit rate mode : Constant Bit rate : 128 kb/s Channel(s) : 2 channels Channel layout : L R Sampling rate : 44.1 kHz Frame rate : 43.066 FPS (1024 SPF) Compression mode : Lossy Stream size : 99.1 MiB (3%) Title : ISO Media file produced by Google Inc. Created on: 09/14/2021. Default : Yes Alternate group : 1

File list

  • 【UNARCHIVED KARAOKE】【NIJISANJI EN - Pomu Rainpuff】for practice for friday!!! [2021-09-15] - x8NbVNeZFxM
    • 【UNARCHIVED KARAOKE】【NIJISANJI EN - Pomu Rainpuff】for practice for friday!!! [2021-09-15] - x8NbVNeZFxM.description (1.5 KiB)
    • 【UNARCHIVED KARAOKE】【NIJISANJI EN - Pomu Rainpuff】for practice for friday!!! [2021-09-15] - x8NbVNeZFxM.jpg (135.5 KiB)
    • 【UNARCHIVED KARAOKE】【NIJISANJI EN - Pomu Rainpuff】for practice for friday!!! [2021-09-15] - x8NbVNeZFxM.live_chat.json (54.3 MiB)
    • 【UNARCHIVED KARAOKE】【NIJISANJI EN - Pomu Rainpuff】for practice for friday!!! [2021-09-15] - x8NbVNeZFxM.mp4 (3.4 GiB)