[Members only] [神楽めあ KaguraMea] 【次の歌枠までメン限で公開してます】今日もタックさん眠ろうね(⋈◍>◡<◍)。✧♡【神楽めあ】 [2021-09-14] - Zln3YM1QRNo

Category:
Date:
2021-09-14 16:45 UTC
Submitter:
Seeders:
0
Information:
Leechers:
4
File size:
2.7 GiB
Completed:
6
Info hash:
b13e3878cba0adeacc978be74e8e327ee76e4a18
![Thumbnail](https://pbs.twimg.com/media/E_PQDjCUUAg7w2h?format=jpg&name=large) Format : MPEG-4 >Format profile : Base Media Codec ID : isom (isom/iso2/avc1/mp41) File size : 2.75 GiB Duration : 2 h 20 min Overall bit rate : 2 796 kb/s Writing application : Lavf59.4.102 Video >ID : 1 Format : AVC Format/Info : Advanced Video Codec Format profile : Main@L4 Format settings : CABAC / 1 Ref Frames Format settings, CABAC : Yes Format settings, Reference : 1 frame Format settings, GOP : M=1, N=30 Codec ID : avc1 Codec ID/Info : Advanced Video Coding Duration : 2 h 20 min Bit rate : 2 659 kb/s Width : 1 920 pixels Height : 1 080 pixels Display aspect ratio : 16:9 Frame rate mode : Variable Frame rate : 30.000 FPS Minimum frame rate : 29.412 FPS Maximum frame rate : 30.303 FPS Color space : YUV Chroma subsampling : 4:2:0 Bit depth : 8 bits Scan type : Progressive Bits/(Pixel*Frame) : 0.043 Stream size : 2.61 GiB (95%) Title : ISO Media file produced by Google Inc. Created on: 09/14/2021. Color range : Limited Color primaries : BT.709 Transfer characteristics : BT.709 Matrix coefficients : BT.709 Codec configuration box : avcC Audio >ID : 2 Format : AAC LC Format/Info : Advanced Audio Codec Low Complexity Codec ID : mp4a-40-2 Duration : 2 h 20 min Bit rate mode : Constant Bit rate : 128 kb/s Channel(s) : 2 channels Channel layout : L R Sampling rate : 44.1 kHz Frame rate : 43.066 FPS (1024 SPF) Compression mode : Lossy Stream size : 129 MiB (5%) Title : ISO Media file produced by Google Inc. Created on: 09/14/2021. Default : Yes Alternate group : 1

File list

  • [Members only] [神楽めあ KaguraMea] 【次の歌枠までメン限で公開してます】今日もタックさん眠ろうね(⋈◍>◡<◍)。✧♡【神楽めあ】 [2021-09-14] - Zln3YM1QRNo.mp4 (2.7 GiB)