[MagicStar] Ultraman Trigger EP07 [WEBDL] [1080p] [HULU] [JPN_SUB]

Category:
Date:
2021-09-13 18:23 UTC
Submitter:
Seeders:
1
Information:
Leechers:
2
File size:
703.8 MiB
Completed:
110
Info hash:
2374261aac6455ae447ea98be3ac3f21022bc367
HD 1080p from HULU JAPAN. ![alt text](https://i.ibb.co/h8Rjt1L/4f76a314-93e9-4c36-8780-d672abd0a3e9.jpg) ![alt text](https://i.ibb.co/d4BkS9z/Ultraman-Trigger-EP07-1080p-HULU-WEB-DL-AAC2-0-H-264-Magic-Star-mkv.jpg) ``` General Unique ID : 208393700841394190356314932208058620550 (0x9CC72AB7CF40D85B82C9218DA979DA86) Complete name : Ultraman.Trigger.EP07.1080p.HULU.WEB-DL.AAC2.0.H.264-MagicStar.mkv Format : Matroska Format version : Version 4 File size : 704 MiB Duration : 24 min 37 s Overall bit rate : 3 997 kb/s Encoded date : UTC 2021-09-11 11:37:25 Writing application : mkvmerge v50.0.0 ('Awakenings') 64-bit Writing library : libebml v1.4.0 + libmatroska v1.6.2 Cover : Yes Attachments : cover.png Video ID : 1 Format : AVC Format/Info : Advanced Video Codec Format profile : High@L4 Format settings : CABAC / 4 Ref Frames Format settings, CABAC : Yes Format settings, Reference fra : 4 frames Codec ID : V_MPEG4/ISO/AVC Duration : 24 min 36 s Bit rate : 3 869 kb/s Width : 1 920 pixels Height : 1 080 pixels Display aspect ratio : 16:9 Frame rate mode : Constant Frame rate : 23.976 (24000/1001) FPS Color space : YUV Chroma subsampling : 4:2:0 Bit depth : 8 bits Scan type : Progressive Bits/(Pixel*Frame) : 0.078 Stream size : 681 MiB (97%) Default : Yes Forced : No Color range : Limited Color primaries : BT.709 Transfer characteristics : BT.709 Matrix coefficients : BT.709 Audio ID : 2 Format : AAC LC Format/Info : Advanced Audio Codec Low Complexity Codec ID : A_AAC-2 Duration : 24 min 37 s Bit rate : 125 kb/s Channel(s) : 2 channels Channel layout : L R Sampling rate : 48.0 kHz Frame rate : 46.875 FPS (1024 SPF) Compression mode : Lossy Stream size : 22.1 MiB (3%) Language : Japanese Default : Yes Forced : No ```

File list