[MagicStar] Boku no Satsui ga Koi wo Shita EP10 END [WEBDL] [1080p] [HULU] [JPN_SUB]

Category:
Date:
2021-09-13 18:20 UTC
Submitter:
Seeders:
8
Information:
Leechers:
4
File size:
995.2 MiB
Completed:
619
Info hash:
33c0c0b6e0113a953e1aff62f0ef668be01ff37c
HD 1080p from HULU JAPAN. ![alt text](https://i.ibb.co/2tVrLHn/5b555994-9e0f-4625-bc37-c7d105e8440d.jpg) ![alt text](https://i.ibb.co/qjzmtyD/Boku-no-Satsui-ga-Koi-wo-Shita-EP10-1080p-HULU-WEB-DL-AAC2-0-H-264-Magic-Star-mkv.jpg) ``` General Unique ID : 76239691038774681169465459896867006422 (0x395B3AFAFC63372F76158B261096A7D6) Complete name : Boku.no.Satsui.ga.Koi.wo.Shita.EP10.1080p.HULU.WEB-DL.AAC2.0.H.264-MagicStar.mkv Format : Matroska Format version : Version 4 File size : 995 MiB Duration : 45 min 2 s Overall bit rate : 3 089 kb/s Encoded date : UTC 2021-09-13 10:09:22 Writing application : mkvmerge v50.0.0 ('Awakenings') 64-bit Writing library : libebml v1.4.0 + libmatroska v1.6.2 Cover : Yes Attachments : cover.png Video ID : 1 Format : AVC Format/Info : Advanced Video Codec Format profile : High@L4 Format settings : CABAC / 4 Ref Frames Format settings, CABAC : Yes Format settings, Reference fra : 4 frames Codec ID : V_MPEG4/ISO/AVC Duration : 45 min 2 s Bit rate : 2 961 kb/s Width : 1 920 pixels Height : 1 080 pixels Display aspect ratio : 16:9 Frame rate mode : Constant Frame rate : 29.970 (29970/1000) FPS Original frame rate : 29.970 (30000/1001) FPS Color space : YUV Chroma subsampling : 4:2:0 Bit depth : 8 bits Scan type : Progressive Bits/(Pixel*Frame) : 0.048 Stream size : 954 MiB (96%) Default : Yes Forced : No Color range : Limited Color primaries : BT.709 Transfer characteristics : BT.709 Matrix coefficients : BT.709 Audio ID : 2 Format : AAC LC Format/Info : Advanced Audio Codec Low Complexity Codec ID : A_AAC-2 Duration : 45 min 2 s Bit rate : 125 kb/s Channel(s) : 2 channels Channel layout : L R Sampling rate : 48.0 kHz Frame rate : 46.875 FPS (1024 SPF) Compression mode : Lossy Stream size : 40.4 MiB (4%) Language : Japanese Default : Yes Forced : No ```

File list

Thank you so much. It will be pleasure from now on.